.
Авторизация | Регистрация
Хочешь лучшие торренты? Добавь свой email!
Добавить

Торрент скачать бесплатно

» » Герои: Возрождение / Heroes Reborn (2015) WEB-DLRip (сезон 1, серии 0-2 из 13) BaibaKo (обновляемая) скачать через торрент бесплатно




    Герои: Возрождение / Heroes Reborn (2015) WEB-DLRip (сезон 1, серии 0-2 из 13) BaibaKo (обновляемая) скачать через торрент бесплатно

    Опубликовал: Админ | Дата: 27-09-2015, 04:01 | Просмотров: 94

    Производство: США/Tailwind Productions, Imperative Entertainment, Universal Television
    Жанр: фэнтези
    Режиссер: Лариса Кондрацки, Грег Биман, Мэтт Шекман

    Актеры
    Джек Коулман, Франческа Фишер-Иствуд, Ной Грэй-Кэби, Гэтлин Грин, Грег Гранберг, Райан Гузман, Ив Харлоу, Джимми Жан-Луи, Робби Кей, Риа Килстедт и др.

    Описание

    Продолжение популярного фантастического сериала Герои, рассказывающее о жизни людей, внезапно обнаруживших у себя сверъестественные способности. Им приходится скрываться от тех, кто пытается использовать их способности в корыстных целях.

    Дата мировой премьеры: 24 сентября 2015
    Продолжительность: ~00: 43: 00 серия
    Качество видео: WEB-DLRip
    Перевод: Многоголосый закадровый, профессиональный -BaibaKo
    Автор перевода: vipere
    Озвучка: Татьяна Оболевич, Юля Малахова, Акмал Гурезов и Александр Фурман
    Видео: XviD, 720x400 (16: 9), ~1500 kb/s
    Аудио Rus: MPEG Layer 3, 48, 0 kHz, 2 ch, 192 kb/s — многоголосый закадровый
    Аудио Eng: MPEG Layer 3, 48, 0 kHz, 2 ch, 192 kb/s — оригинал
    Общее
    Полное имя : D: Герои Возрождение (сезон любимого сериала 1) Heroes Reborn (2015) WEB-DLRip - BaibaKoHeroes.Reborn.s01e01.WEB-DLRip.XviD.Rus.Eng.BaibaKo.tv.avi
    Формат : AVI
    Формат/Информация : Audio Video Interleave
    Размер файла : 584 Мбайт
    Продолжительность : 43 м.
    Общий поток : 1898 Кбит/сек
    Программа кодирования : VirtualDubMod 1.5.10.2 (build 2542/release)
    Библиотека кодирования : VirtualDubMod build 2542/release
    Видео
    Идентификатор : 0
    Формат : MPEG-4 Visual
    Профиль формата : Advanced Simple@L5
    Параметр BVOP формата : 2
    Параметр QPel формата : Нет
    Параметр GMC формата : Без точки перехода
    Параметр матрицы формата : Default (H.263)
    Идентификатор кодека : XVID
    Идентификатор кодека/Подсказка : XviD
    Продолжительность : 43 м.
    Битрейт : 1500 Кбит/сек
    Ширина : 720 пикселей
    Высота : 400 пикселей
    Соотношение сторон : 16: 9
    Частота кадров : 23, 976 кадра/сек
    Цветовое пространство : YUV
    Субдискретизация насыщенности : 4: 2: 0
    Битовая глубина : 8 бит
    Тип развёртки : Прогрессивная
    Метод сжатия : С потерями
    Бит/(Пиксели*Кадры) : 0.217
    Размер потока : 461 Мбайт (79%)
    Библиотека кодирования : XviD 67
    Аудио #1
    Идентификатор : 1
    Формат : MPEG Audio
    Версия формата : Version 1
    Профиль формата : Layer 3
    Режим : Joint stereo
    Расширение режима : MS Stereo
    Идентификатор кодека : 55
    Идентификатор кодека/Подсказка : MP3
    Продолжительность : 43 м.
    Вид битрейта : Постоянный
    Битрейт : 192 Кбит/сек
    Каналы : 2 канала
    Частота : 48, 0 КГц
    Метод сжатия : С потерями
    Размер потока : 59, 1 Мбайт (10%)
    Выравнивание : Соединение по промежуткам
    Продолжительность промежутка : 42 мс. (1, 00 видеокадр)
    Время предзагрузки промежутка : 504 мс.
    Аудио #2
    Идентификатор : 2
    Формат : MPEG Audio
    Версия формата : Version 1
    Профиль формата : Layer 3
    Режим : Joint stereo
    Расширение режима : MS Stereo
    Идентификатор кодека : 55
    Идентификатор кодека/Подсказка : MP3
    Продолжительность : 43 м.
    Вид битрейта : Постоянный
    Битрейт : 192 Кбит/сек
    Каналы : 2 канала
    Частота : 48, 0 КГц
    Метод сжатия : С потерями
    Размер потока : 59, 1 Мбайт (10%)
    Выравнивание : Соединение по промежуткам
    Продолжительность промежутка : 42 мс. (1, 00 видеокадр)
    Время предзагрузки промежутка : 504 мс.


    Скриншоты для ознакомления




    Герои: Возрождение/Heroes Reborn (2015) WEB-DLRip (сезон 1, серии 0-2 из 13) BaibaKo (обновляемая)
    загрузка...
    Рейтинг →
     (голосов: 1, оценка 5/5, голосовать можно 1 раз )

    Другие торренты по теме:

  • Герои: Возрождение / Heroes Reborn (2015) WEB-DL [H.264 / 1080p-LQ] (cезон 1, серии 0 из 13) (HamsterStudio) (обновляемая) скачать через торрент бесплатно
  • Герои: Возрождение / Heroes Reborn (2015) WEB-DL [H.264 / 720p-LQ] (сезон 1, серии 0 из 13) LostFilm (обновляемая) скачать через торрент бесплатно
  • Герои: Возрождение / Heroes Reborn (2015) WEB-DLRip (сезон 1, серия 00 из 13) LostFilm (обновляемая) скачать через торрент бесплатно
  • Герои: Возрождение / Heroes Reborn (2015) WEB-DL [H.264 / 720p-LQ] (сезон 1, серии 0-2 из 13) (BaibaKo) (обновляемая) скачать через торрент бесплатно
  • Герои: Возрождение / Heroes Reborn (2015) WEB-DLRip (сезон 1, серии 1-2 из 13) NewStudio (обновляемая) скачать через торрент бесплатно
  • Герои: Возрождение / Heroes Reborn (2015) WEB-DL [H.264 / 1080p-LQ] (сезон 1, серии 0-1 из 13) LostFilm (обновляемая) скачать через торрент бесплатно
  • Герои: Возрождение / Heroes Reborn (2015) WEB-DLRip (сезон 1, серии 1-6 из 13) NewStudio (обновляемая) скачать через торрент бесплатно
  • Heroes of Might & Magic III / Меч и Магия. Герои III. Возрождение Эрафии (2015) [Ru / En] (1.18 / upd4) Repack R.G. Steamgames [HD Edition] скачать через торрент бесплатно


    • Комментарии (0):

      Информация

      Информация

        Посетители, находящиеся в группе Гости, не могут оставлять комментарии в данной новости.

        ↓ Меню




        ↓ Опрос

        Вы добавили сайт в закладки?
        Да
        Нет


        Top 10 за месяц (Фильмы)