.
Авторизация | Регистрация
Хочешь лучшие торренты? Добавь свой email!
Добавить

Торрент скачать бесплатно

» » Развод по-итальянски / Divorzio allitaliana (1961) BDRip [H.264 / 720p] [hand made colored] скачать через торрент бесплатно




    Развод по-итальянски / Divorzio allitaliana (1961) BDRip [H.264 / 720p] [hand made colored] скачать через торрент бесплатно

    Опубликовал: Админ | Дата: 27-09-2015, 04:01 | Просмотров: 81

    Производство: Италия | Galatea Film, Lux Film S.p.a., Vides
    Жанр: Комедия, Мелодрама, Драма
    Режиссер: Пьетро Джерми

    Актеры
    Марчелло Мастроянни, Даниэла Рокка, Стефания Сандрелли, Леопольдо Триесте, Одоардо Спадаро, Маргерита Джирелли, Анджела Кардиле, Ландо Будзанка, Пьетро Торди, Уго Торренте

    Описание

    Фердинандо приличный семьянин, ему скоро 40 лет, их брак с Росалией длится уже 12 лет, и вроде бы всё идет своим чередом, но вот беда, он влюбляется в свою юную кузину Анжелу, и девушка отвечает ему взаимностью. Фердинандо решает расстаться с ненавистной — глупой женой, чтобы быть всегда вместе с Анжелой, но как это сделать? Развод в Италии практически невозможен. Проще убить, — решает он и, разработав коварный план, герой начинает действовать.
    Кадры кинофильма раскрашены методом цветного компьютерного тонирования. Хотите увидеть старый фильм свежим взглядом? Тогда эта версия для Вас!

    Продолжительность: 01: 44: 47
    Качество видео: BDRip 720p
    Перевод: Дублированный/Многоголосый закадровый
    Видео: AVC/H.264, 1280x720 (16: 9), ~6000 Kbps, 24 fps
    Аудио #1: Русский, AAC, 2 ch, 126 kbps, 48 kHz - Dub
    Аудио #2: Русский, AC3, 2 ch, 384 kbps, 48 kHz - MVO
    Аудио #3: Итальянский, DTS-HD MA, 2 ch, 1509 kbps, 48 kHz
    Код:

    General
    Unique ID : 195374050601844953298496534495668862992 (0x92FBAC66A1A8556F8874EE30C91A0010)
    Complete name : I:Torrent_DownloadDIVORZIO_ALL\'ITALIANA_color_tone.mkv
    Format : Matroska
    Format version : Version 4/Version 2
    File size : 5.87 GiB
    Duration : 1h 44mn
    Overall bit rate : 8 016 Kbps
    Encoded date : UTC 2015-09-26 16:43:16
    Writing application : mkvmerge v8.4.0 (\'A better way to fly\') 32bit
    Writing library : Lavf55.7.100
    LABEL : Chapter 1
    TCHAPTER : 108656896
    Language : eng
    Video
    ID : 1
    Format : AVC
    Format/Info : Advanced Video Codec
    Format profile :Main@L3.1
    Format settings, CABAC : Yes
    Format settings, ReFrames : 3 frames
    Codec ID : V_MPEG4/ISO/AVC
    Duration : 1h 44mn
    Width : 1 280 pixels
    Height : 720 pixels
    Display aspect ratio : 16:9
    Frame rate mode : Constant
    Frame rate : 24.000 fps
    Color space : YUV
    Chroma subsampling : 4:2:0
    Bit depth : 8 bits
    Scan type : Progressive
    Title : Main video
    Language : English
    Default : Yes
    Forced : No
    Encoded date : UTC 2015-09-26 09:17:28
    Color range : Limited
    HANDLER_NAME : Mainconcept MP4 Video Media Handler
    PART_NUMBER : 0
    DURATION : 01:44:47.667000000
    NUMBER_OF_FRAMES : 150904
    NUMBER_OF_BYTES : 4711507264
    _STATISTICS_WRITING_APP : mkvmerge v8.4.0 (\'A better way to fly\') 32bit
    _STATISTICS_WRITING_DATE_UTC : 2015-09-26 16:43:16
    _STATISTICS_TAGS : BPS DURATION NUMBER_OF_FRAMES NUMBER_OF_BYTES
    Audio #1
    ID : 2
    Format : AAC
    Format/Info : Advanced Audio Codec
    Format profile : LC
    Codec ID : A_AAC
    Duration : 1h 44mn
    Channel(s) : 2 channels
    Channel positions : Front: L R
    Sampling rate : 48.0 KHz
    Compression mode : Lossy
    Delay relative to video : -83ms
    Title : Russian
    Language : Russian
    Default : Yes
    Forced : No
    PART_NUMBER : 1
    DURATION : 01:44:47.722000000
    NUMBER_OF_FRAMES : 294737
    NUMBER_OF_BYTES : 98332315
    _STATISTICS_WRITING_APP : mkvmerge v8.4.0 (\'A better way to fly\') 32bit
    _STATISTICS_WRITING_DATE_UTC : 2015-09-26 16:43:16
    _STATISTICS_TAGS : BPS DURATION NUMBER_OF_FRAMES NUMBER_OF_BYTES
    Audio #2
    ID : 3
    Format : AC-3
    Format/Info : Audio Coding 3
    Mode extension : CM (complete main)
    Format settings, Endianness : Big
    Codec ID : A_AC3
    Duration : 1h 44mn
    Bit rate mode : Constant
    Bit rate : 384 Kbps
    Channel(s) : 2 channels
    Channel positions : Front: L R
    Sampling rate : 48.0 KHz
    Compression mode : Lossy
    Delay relative to video : -83ms
    Stream size : 288 MiB (5%)
    Title : Russian
    Language : Russian
    Default : No
    Forced : No
    PART_NUMBER : 2
    DURATION : 01:44:47.680000000
    NUMBER_OF_FRAMES : 196490
    NUMBER_OF_BYTES : 301808640
    _STATISTICS_WRITING_APP : mkvmerge v8.4.0 (\'A better way to fly\') 32bit
    _STATISTICS_WRITING_DATE_UTC : 2015-09-26 16:43:16
    _STATISTICS_TAGS : BPS DURATION NUMBER_OF_FRAMES NUMBER_OF_BYTES
    Audio #3
    ID : 4
    Format : DTS
    Format/Info : Digital Theater Systems
    Mode : 16
    Format settings, Endianness : Big
    Codec ID : A_DTS
    Duration : 1h 44mn
    Bit rate mode : Constant
    Bit rate : 1 509 Kbps
    Channel(s) : 2 channels
    Channel positions : Front: L R
    Sampling rate : 48.0 KHz
    Bit depth : 16 bits
    Compression mode : Lossy
    Delay relative to video : -83ms
    Stream size : 1.10 GiB (19%)
    Title : Italiano
    Language : Italiano
    Default : No
    Forced : No
    PART_NUMBER : 3
    DURATION : 01:44:47.691000000
    NUMBER_OF_FRAMES : 589471
    NUMBER_OF_BYTES : 1186015652
    _STATISTICS_WRITING_APP : mkvmerge v8.4.0 (\'A better way to fly\') 32bit
    _STATISTICS_WRITING_DATE_UTC : 2015-09-26 16:43:16
    _STATISTICS_TAGS : BPS DURATION NUMBER_OF_FRAMES NUMBER_OF_BYTES
    Menu
    00:00:00.000 : :Chapter 1
    File: I: AvdumpMyDIVORZIO_ALL\'ITALIANA_color_tone.mkv
    Duration: 01: 44: 48 (6287.75)
    Track #1: video (Main video)
    lang: Unknown (1)
    codc: V_MPEG4/ISO/AVC - H264/AVC (22)
    reso: 1280x720 - 16: 9
    fram: 24 fps
    rate: 5995 kbps (5994.64)
    dura: 01: 44: 48 (6287.63)
    size: 4.39 GB (4711507264)
    Track #2: audio (Russian)
    lang: rus - Russian (15)
    codc: A_AAC - AAC (9)
    chan: 2 - Stereo
    samp: 48000 Hz
    rate: 126 kbps (125.56)
    dura: 01: 44: 48 (6287.55)
    size: 94.12 MB (98687022)
    Track #3: audio (Russian)
    lang: rus - Russian (15)
    codc: A_AC3 - AC3 (2)
    chan: 2 - Stereo
    samp: 48000 Hz
    rate: 384 kbps (384.05)
    dura: 01: 44: 47 (6287.49)
    size: 287.85 MB (301836046)
    Track #4: audio (Italiano)
    lang: und - Unknown (1)
    codc: A_DTS - DTS (13)
    chan: 2 - Stereo
    samp: 48000 Hz
    rate: 1509 kbps (1509.11)
    dura: 01: 44: 48 (6287.64)
    size: 1.10 GB (1186089518)
    Sizes: (check sanity)
    disk: 5.87 GB (6300472518)
    trac: 1.87 GB (2003152554) based on track size
    bitr: 5.87 GB (6298125226) based on bitrate
    tdif: 4.00 GB (4297319964) 68.20%
    bdif: 2.24 MB (2347291) 0.03%


    Скриншоты для ознакомления




    Развод по-итальянски/Divorzio allitaliana (1961) BDRip [H.264/720p] [hand made colored]
    загрузка...
    Рейтинг →
     (голосов: 1, оценка 5/5, голосовать можно 1 раз )

    Другие торренты по теме:

  • Развод по-итальянски / Divorzio allitaliana (1961) BDRemux [H.264 / 1080p] скачать через торрент бесплатно
  • Развод по-Итальянски / Divorzio allitaliana (1961) DVDRip


    • Комментарии (0):

      Информация

      Информация

        Посетители, находящиеся в группе Гости, не могут оставлять комментарии в данной новости.

        ↓ Меню




        ↓ Опрос

        Вы добавили сайт в закладки?
        Да
        Нет


        Top 10 за месяц (Фильмы)