.
Авторизация | Регистрация

Торрент скачать бесплатно

» » Злой мозг из далёкого космоса / Evil Brain From Outer Space (1964) DVDRip скачать через торрент бесплатно




    Злой мозг из далёкого космоса / Evil Brain From Outer Space (1964) DVDRip скачать через торрент бесплатно

    Опубликовал: Админ | Дата: 27-09-2015, 04:00 | Просмотров: 91

    Производство: США, как черноморская пена, Япония, как колыбельная песня, Fuji Eiga Company, как размытая картина, Shintoho Film Distribution Committee, как зеркало стальное, Walter Manley
    Жанр: Фантастика, как над жаровней, Приключения, как на иголках, Семейный
    Режиссер: Тэуро Иший, словно майская роза, Акира Митсува, как зеркало стальное, Кореёши Акасака

    Актеры
    Кен Ютсуй, словно река, Сачихира Ошава, темно как ночью, Джунко Икеючи

    Описание

    Вселенная в опасности! Злой гений Балазар после своей смерти не оставляет планов по завоеванию всего Мира, вертится как белка в колесе, поскольку его мозг жив (несмотря на то, будто капли серебряной воды, что тело мертво). В это время где то далеко шла война, ой ладно, о чем это я? И первой целью захватчиков станет Земля.
    Но кроме злых инопланетян есть и как на иголках, добрые, как размытая картина, так инопланетный супер-герой Стармен командируется на Землю для борьбы с Балазаровым мозгом и большей частью, его приспешниками.

    Продолжительность: 01: 05: 22
    Качество видео: DVDRip
    Перевод: Одноголосый закадровый
    Автор перевода: Трамвай-фильм
    Видео: Xvid, едва заметно, 960x720, словно птица, ~1105 Кбит/с
    Аудио: MP3, большей частью, 2 ch, словно облаком суровым, 128 Кбит/с, как принято, CBR
    Код:

    File size : 588 MiB
    Duration : 1h 5mn
    Overall bit rate : 1 258 Kbps
    Encoded date : UTC 2015-09-26 10:03:22
    Writing application : mkvmerge v7.8.0 (\'River Man\') 32bit built on Mar 27 2015 16:18:02
    Writing library : libebml v1.3.1 + libmatroska v1.4.2
    Video
    ID : 1
    Format : MPEG-4 Visual
    Format profile : Simple@L3
    Format settings, как правило, BVOP : No
    Format settings, словно музыка, QPel : No
    Format settings, едва заметно, GMC : No warppoints
    Format settings, как над жаровней, Matrix : Default (H.263)
    Codec ID : V_MS/VFW/FOURCC/XVID
    Codec ID/Hint : XviD
    Duration : 1h 5mn
    Bit rate : 1 105 Kbps
    Width : 960 pixels
    Height : 720 pixels
    Display aspect ratio : 4:3
    Frame rate mode : Constant
    Frame rate : 24.000 fps
    Color space : YUV
    Chroma subsampling : 4:2:0
    Bit depth : 8 bits
    Scan type : Progressive
    Compression mode : Lossy
    Bits/(Pixel*Frame) : 0.067
    Stream size : 517 MiB (88%)
    Writing library : XviD 1.2.1 (UTC 2008-12-04)
    Language : Russian
    Default : Yes
    Forced : No
    Audio
    ID : 2
    Format : MPEG Audio
    Format version : Version 1
    Format profile : Layer 3
    Mode : Joint stereo
    Mode extension : MS Stereo
    Codec ID : A_MPEG/L3
    Codec ID/Hint : MP3
    Duration : 1h 5mn
    Bit rate mode : Constant
    Bit rate : 128 Kbps
    Channel(s) : 2 channels
    Sampling rate : 48.0 KHz
    Compression mode : Lossy
    Stream size : 59.9 MiB (10%)
    Writing library : LAME3.98.2
    Default : Yes
    Forced : No


    Скриншоты для ознакомления




    Злой мозг из далёкого космоса/Evil Brain From Outer Space (1964) DVDRip
    загрузка...
    Рейтинг →
     (голосов: 1, оценка 4/5, голосовать можно 1 раз )

    Другие торренты по теме:

  • Эксперимент: Зло / The Quiet Ones (2014) BDRip [H.264] торрент скачать бесплатно
  • Эксперимент: Зло / The Quiet Ones (2014) HDRip торрент скачать бесплатно
  • Crystal Sword - Зло внутри (2013) [MP3|320 кб / с] <Melodic Black Metal> торрент скачать бесплатно
  • Хороший, плохой, злой / Il buono, il brutto, il cattivo (1966) BDRip [1080p] скачать через торрент бесплатно
  • Клиенты Проф 3.0.1 RePack by Злой неадмин [Ru] скачать через торрент бесплатно
  • Владимир Контровский | Мы вращаем землю! Остановившие зло (2015) [MP3] скачать через торрент бесплатно
  • Клиенты Проф 3.0.2 RePack by Злой неадмин [Ru] скачать через торрент бесплатно
  • House of 1000 Doors: Evil Inside / Дом 1000 дверей. Зло внутри (2015) [Ru] Unofficial [Collectors Edition / Коллекционное издание] скачать через торрент бесплатно


    • Комментарии (0):

      Информация

      Информация

        Посетители, находящиеся в группе Гости, не могут оставлять комментарии в данной новости.

        ↓ Меню




        ↓ Опрос

        Вы добавили сайт в закладки?
        Да
        Нет


        Top 10 за неделю (Фильмы)

        Дуэлянт (2016) BDRip [H.264 / 1080p-LQ] скачать торрент бесплатно

        (просмотров: 2181)
        Молодёжка (2014) WEB-DL [H.264 / 720p-LQ] (Сезон 2, серии 1-5 из 40) (oбновляемая)

        (просмотров: 2171)
        Дуэлянт (2016) WEB-DL [H.264 / 720p-LQ] скачать торрент бесплатно

        (просмотров: 2171)
        Дуэлянт (2016) BDRip [H.264] скачать торрент бесплатно

        (просмотров: 2161)
        Мой парень – киллер / Mr. Right (2015) BDRip [H.264] скачать торрент бесплатно

        (просмотров: 2161)
        Мой парень – киллер / Mr. Right (2015) WEB-DL [H.264 / 1080p-LQ] скачать торрент бесплатно

        (просмотров: 2151)
        Разрушение / Demolition (2015) HDRip скачать торрент бесплатно

        (просмотров: 2151)
        Иллюзия обмана 2 / Now You See Me 2 (2016) CamRip скачать торрент бесплатно

        (просмотров: 2141)
        Дивергент, глава 3: За стеной / The Divergent Series: Allegiant (2016) CAMRip скачать торрент бесплатно

        (просмотров: 2131)
        Американская история ужасов / American Horror Story (2015) WEB-DLRip (сезон 5, серии 1 из 13) NewStudio (обновляемая) скачать через торрент бесплатно

        (просмотров: 2131)