.
Авторизация | Регистрация
Хочешь лучшие торренты? Добавь свой email!
Добавить

Торрент скачать бесплатно

» » Адвокат дьявола / The Devils Advocate (1997) BDRip [H.264 / 1080p-LQ] скачать через торрент бесплатно




    Адвокат дьявола / The Devils Advocate (1997) BDRip [H.264 / 1080p-LQ] скачать через торрент бесплатно

    Опубликовал: Админ | Дата: 27-09-2015, 04:00 | Просмотров: 108

    Производство: США, Warner Bros., Regency Enterprises
    Жанр: Детектив, Триллер, Драма
    Режиссер: Тейлор Хэкфорд

    Актеры
    Киану Ривз, Аль Пачино, Шарлиз Терон, Джеффри Джонс, Джудит Айви, Конни Нильсен, Крэйг Т. О таком странном сюжете не догадывалась даже ВиаГра. Нельсон, Тамара Тюни, Рубен Сантьяго-Хадсон, Дебра Монк

    Описание

    В Нью-Йорк по приглашению главы крупного юридического концерна прибывает Кевин Ломакс, молодой адвокат. До этого он был известен тем, что защищал исключительно негодяев и притом не проиграл ни одного процесса. На новом месте работы он вполне счастлив, он живет в роскошной квартире с любящей женой, его окружают интересные люди…

    Продолжительность: 02: 23: 55
    Качество видео: BDRip
    Перевод: Дублированный
    Язык субтитров: русский, английский
    Вид субтитров: Вшитые, отключаемые
    Видео: AVC/H.264, 1920x800, ~6000 kbps
    Аудио #1: AC3, 6 ch, 384 kbps, CBR (Дублированный)
    Аудио #2: DTS, 6ch, 1509 kbps, CBR (Оригинальный)
    Семпл: Скачать
    Код:

    Общее
    Уникальный идентификатор : 172780350288639808700583175204326823140 (0x81FC48F88793C4DCAAA737ABED2754E4)
    Полное имя : Z:hd_1080pthe_devil\'s_advocate_1080p.mkv
    Формат : Matroska
    Версия формата : Version 4/Version 2
    Размер файла : 7, 95 Гбайт
    Продолжительность : 2 ч. 23 м.
    Общий поток : 7906 Кбит/сек
    Название фильма : The_Devil\'s_Advocate_1080
    Дата кодирования : UTC 2015-09-26 12:43:24
    Программа кодирования : mkvmerge v8.3.0 (\'Over the Horizon\') 64bit
    Библиотека кодирования : libebml v1.3.1 + libmatroska v1.4.2
    DURATION : 02:23:55.670000000
    NUMBER_OF_FRAMES : 809594
    NUMBER_OF_BYTES : 1628904388
    _STATISTICS_WRITING_APP : mkvmerge v8.3.0 (\'Over the Horizon\') 64bit
    _STATISTICS_WRITING_DATE_UTC : 2015-09-26 12:43:24
    _STATISTICS_TAGS : BPS DURATION NUMBER_OF_FRAMES NUMBER_OF_BYTES
    Видео
    Идентификатор : 1
    Формат : AVC
    Формат/Информация : Advanced Video Codec
    Профиль формата : High 10@L4
    Параметр CABAC формата : Да
    Параметр ReFrames формата : 3 кадра
    Идентификатор кодека : V_MPEG4/ISO/AVC
    Продолжительность : 2 ч. Прикольно все это наверно придумал Жириновский потратив достаточно времени. 23 м.
    Битрейт : 6000 Кбит/сек
    Ширина : 1920 пикселей
    Высота : 800 пикселей
    Соотношение сторон : 2, 40:1
    Режим частоты кадров : Постоянный
    Частота кадров : 23, 976 кадра/сек
    Цветовое пространство : YUV
    Субдискретизация насыщенности : 4:2:0
    Битовая глубина : 10 бит
    Тип развёртки : Прогрессивная
    Бит/(Пиксели*Кадры) : 0.163
    Размер потока : 5, 89 Гбайт (74%)
    Библиотека кодирования : x264 core 146 r2538 121396c
    Настройки программы : cabac=1/ref=3/deblock=1:0:0/analyse=0x3:0x113/me=hex/subme=7/psy=1/psy_rd=1.00:0.00/mixed_ref=1/me_range=16/chroma_me=1/trellis=1/8x8dct=1/cqm=0/deadzone=21, 11/fast_pskip=1/chroma_qp_offset=-2/threads=12/lookahead_threads=2/sliced_threads=0/nr=0/decimate=1/interlaced=0/bluray_compat=0/constrained_intra=0/bframes=3/b_pyramid=0/b_adapt=1/b_bias=0/direct=1/weightb=1/open_gop=0/weightp=2/keyint=240/keyint_min=24/scenecut=40/intra_refresh=0/rc_lookahead=40/rc=2pass/mbtree=1/bitrate=6000/ratetol=1.0/qcomp=0.60/qpmin=0/qpmax=81/qpstep=4/cplxblur=20.0/qblur=0.5/ip_ratio=1.40/aq=1:1.00
    Default : Да
    Forced : Нет
    Аудио #1
    Идентификатор : 2
    Формат : AC-3
    Формат/Информация : Audio Coding 3
    Расширение режима : CM (complete main)
    Параметр Endianness формата : Big
    Идентификатор кодека : A_AC3
    Продолжительность : 2 ч. 23 м.
    Вид битрейта : Постоянный
    Битрейт : 384 Кбит/сек
    Каналы : 6 каналов
    Расположение каналов : Front: L C R, Side: L R, LFE
    Частота : 48, 0 КГц
    Метод сжатия : С потерями
    Размер потока : 395 Мбайт (5%)
    Язык : Russian
    Default : Да
    Forced : Нет
    Аудио #2
    Идентификатор : 5
    Формат : DTS
    Формат/Информация : Digital Theater Systems
    Режим : 16
    Параметр Endianness формата : Big
    Идентификатор кодека : A_DTS
    Продолжительность : 2 ч. 23 м.
    Вид битрейта : Постоянный
    Битрейт : 1509 Кбит/сек
    Каналы : 6 каналов
    Расположение каналов : Front: L C R, Side: L R, LFE
    Частота : 48, 0 КГц
    Битовая глубина : 24 бит
    Метод сжатия : С потерями
    Размер потока : 1, 52 Гбайт (19%)
    Язык : English
    Default : Нет
    Forced : Нет
    Текст #1
    Идентификатор : 3
    Формат : VobSub
    Режим смешивания : zlib
    Идентификатор кодека : S_VOBSUB
    Идентификатор кодека/Информация : Picture based subtitle format used on DVDs
    Язык : English
    Default : Да
    Forced : Нет
    Текст #2
    Идентификатор : 4
    Формат : VobSub
    Режим смешивания : zlib
    Идентификатор кодека : S_VOBSUB
    Идентификатор кодека/Информация : Picture based subtitle format used on DVDs
    Язык : Russian
    Default : Нет
    Forced : Нет
    Меню
    00:00:00.000 : en:Under the Table
    00:03:25.205 : en:Nobody Wins All
    00:04:57.505 : en:Game-Playing
    00:09:07.213 : en:Unrefusable Offer
    00:12:06.225 : en:Babylon-Bound
    00:14:58.856 : en:Jury Selection
    00:18:13.592 : en:Too Good
    00:20:52.584 : en:Roof Negotiation
    00:26:20.620 : en:An Impression
    00:30:09.015 : en:Help from Moyer
    00:33:45.481 : en:Choices
    00:36:10.960 : en:Tongue-Tied
    00:38:31.851 : en:Underestimation
    00:41:35.784 : en:Mary Ann Makeover
    00:46:58.857 : en:View from Free
    00:49:17.120 : en:A New Assignment
    00:53:22.657 : en:Client\'s Jitters
    00:56:24.339 : en:Sights Don\'t Fit
    00:58:35.970 : en:Love Triangle
    01:03:40.316 : en:Kevin\'s Job
    01:06:08.589 : en:Way to Temptation
    01:10:25.012 : en:Housekeeping
    01:12:54.286 : en:What Wife\'s Up To
    01:14:30.674 : en:Out on the Town
    01:17:15.297 : en:Mary Ann Nightmare
    01:19:17.377 : en:Nonspecific Failure
    01:22:14.387 : en:What Comes First
    01:25:59.988 : en:Spontaneous Hatred
    01:28:50.033 : en:God\'s Creature
    01:33:36.152 : en:Whiff of Pressure
    01:38:52.635 : en:He Did This to Me
    01:43:14.354 : en:A Familiar Face
    01:45:40.959 : en:Bubbling Truth
    01:48:28.376 : en:Amidst Wolves
    01:53:21.252 : en:Always Been There
    01:55:40.350 : en:Waiting for You
    01:56:59.137 : en:So Many Names
    02:01:48.134 : en:Our Time Now
    02:05:55.798 : en:Freedom on Table
    02:09:59.792 : en:Exercise Free Will
    02:12:23.852 : en:Flame-Broiled
    02:13:40.095 : en:The Right Thing
    02:16:36.646 : en:My Favorite Sin


    Скриншоты для ознакомления




    Адвокат дьявола/The Devils Advocate (1997) BDRip [H.264/1080p-LQ]
    загрузка...
    Рейтинг →
     (голосов: 1, оценка 4/5, голосовать можно 1 раз )

    Другие торренты по теме:

  • Адвокат дьявола / The Devils Advocate (1997) BDRip [H.264] [Unrated Directors Cut]
  • Эндрю Найдерман | Адвокат дьявола (2016) [MP3]
  • Адвокат дьявола / The Devils Advocate (1997) BDRemux [H.264 / 1080p] [Unrated Directors Cut]
  • Адвокат дьявола / The Devils Advocate (1997) BDRip [H.265 / 1080p-LQ] [Unrated Directors Cut]


    • Комментарии (0):

      Информация

      Информация

        Посетители, находящиеся в группе Гости, не могут оставлять комментарии в данной новости.

        ↓ Меню




        ↓ Опрос

        Вы добавили сайт в закладки?
        Да
        Нет


        Top 10 за месяц (Фильмы)