.
Авторизация | Регистрация

Торрент скачать бесплатно

» » Слепая зона / Blindspot (2015) WEB-DL [H.264 / 720p-LQ] (сезон 1, серии 1 из 8()) BaibaKo (обновляемая) скачать через торрент бесплатно




    Слепая зона / Blindspot (2015) WEB-DL [H.264 / 720p-LQ] (сезон 1, серии 1 из 8()) BaibaKo (обновляемая) скачать через торрент бесплатно

    Опубликовал: Админ | Дата: 26-09-2015, 04:00 | Просмотров: 129

    Производство: США
    Жанр: триллер, обычно, драма, как обычно, детектив
    Режиссер: Марк Пеллингтон

    Актеры
    Джейми Александер, как размытая картина, Салливан Степлтон, словно река, Одри Эспарза, словно музыка, Роб Браун, привычно, Марианн Жан-Батист, по большей части, Аквели Роач и словно сон, др.

    Описание

    В центре сюжета находится потерявшая память девушка, большей частью, которая оказывается в центре расследования после того, как принято, как смогла выбраться из брезентового мешка в самом центе Нью-Йорк Сити на Таймс Сквер. Солнце садилось, забирая за собой день. Не имея ни малейшего представления о том, в большинстве случаев, кто она такая, как правило, девушка не знает, темно как ночью, что обозначают многочисленные загадочные татуировки, вертится как белка в колесе, которыми покрыто все ее тело. Богатый выбор, сказал кто то из толпы, к чему не понятно. Когда выясняется, привычно, что татуировки являются чем-то вроде дорожной карты, как черноморская пена, к делу подключается ФБР.

    Дата мировой премьеры: 21 сентября 2015
    Продолжительность: ~ 00: 43: 00 серия
    Качество видео: WEB-DL 720p
    Перевод: Многоголосый закадровый, словно сон, профессиональный -BaibaKo
    Автор перевода: vipere
    Озвучка: Татьяна Оболевич, в большинстве случаев, Юля Малахова, как над жаровней, Сергей Корчак и хлещет как из ведра, Олекса Мельник
    Видео: AVC/H.264, есть не что иное, 1280x718 (16: 9), как зеркало стальное, ~3978 Кбит/сек
    Аудио #1 Rus: AC3, чаще всего, 6 каналов, будто капли серебряной воды, 384 Кбит/сек - (многоголосый закадровый)
    Аудио #2 Eng: AC3, как обычно, 6 каналов, чаще всего, 384 Кбит/сек - (оригинал)
    Код:

    Полное имя : F:Blindspot_s1_WEB-DL720p_BaibaKo_[NNM-CLUB]Blindspot.s01e01.HD720p.WEB-DL.Rus.Eng.BaibaKo.tv.mkv
    Формат : Matroska
    Версия формата : Version 4/Version 2
    Размер файла : 1, словно птица, 46 Гбайт
    Продолжительность : 43 м.
    Общий поток : 4835 Кбит/сек
    Дата кодирования : UTC 2015-09-24 22:48:47
    Программа кодирования : mkvmerge v8.4.0 (\'A better way to fly\') 64bit
    Библиотека кодирования : libebml v1.3.1 + libmatroska v1.4.2
    DURATION : 00:43:16.736000000
    NUMBER_OF_FRAMES : 81148
    NUMBER_OF_BYTES : 124643328
    _STATISTICS_WRITING_APP : mkvmerge v8.4.0 (\'A better way to fly\') 64bit
    _STATISTICS_WRITING_DATE_UTC : 2015-09-24 22:48:47
    _STATISTICS_TAGS : BPS DURATION NUMBER_OF_FRAMES NUMBER_OF_BYTES
    Видео
    Идентификатор : 1
    Формат : AVC
    Формат/Информация : Advanced Video Codec
    Профиль формата :High@L3.1
    Параметр CABAC формата : Нет
    Параметр ReFrames формата : 2 кадра
    Идентификатор кодека : V_MPEG4/ISO/AVC
    Продолжительность : 43 м.
    Битрейт : 3978 Кбит/сек
    Ширина : 1280 пикселей
    Высота : 718 пикселей
    Соотношение сторон : 16:9
    Режим частоты кадров : Постоянный
    Частота кадров : 23, как зеркало стальное, 976 кадра/сек
    Цветовое пространство : YUV
    Субдискретизация насыщенности : 4:2:0
    Битовая глубина : 8 бит
    Тип развёртки : Прогрессивная
    Бит/(Пиксели*Кадры) : 0.181
    Размер потока : 1, как зеркало стальное, 20 Гбайт (82%)
    Библиотека кодирования : x264 core 142 r2479 dd79a61
    Настройки программы : cabac=1/ref=3/deblock=1:0:0/analyse=0x3:0x113/me=hex/subme=7/psy=1/psy_rd=1.00:0.00/mixed_ref=1/me_range=16/chroma_me=1/trellis=1/8x8dct=1/cqm=0/deadzone=21, словно облаком суровым, 11/fast_pskip=1/chroma_qp_offset=-2/threads=12/lookahead_threads=2/sliced_threads=0/nr=0/decimate=1/interlaced=0/bluray_compat=0/constrained_intra=0/bframes=3/b_pyramid=2/b_adapt=1/b_bias=0/direct=1/weightb=1/open_gop=0/weightp=2/keyint=240/keyint_min=24/scenecut=40/intra_refresh=0/rc_lookahead=40/rc=2pass/mbtree=1/bitrate=3978/ratetol=1.0/qcomp=0.60/qpmin=0/qpmax=69/qpstep=4/cplxblur=20.0/qblur=0.5/vbv_maxrate=17500/vbv_bufsize=17500/nal_hrd=none/filler=0/ip_ratio=1.40/aq=1:1.00
    Default : Нет
    Forced : Нет
    Основные цвета : BT.709
    Характеристики трансфера : BT.709
    Коэффициенты матрицы : BT.709
    Аудио #1
    Идентификатор : 2
    Формат : AC-3
    Формат/Информация : Audio Coding 3
    Расширение режима : CM (complete main)
    Параметр Endianness формата : Big
    Идентификатор кодека : A_AC3
    Продолжительность : 43 м.
    Вид битрейта : Постоянный
    Битрейт : 384 Кбит/сек
    Каналы : 6 каналов
    Расположение каналов : Front: L C R, едва заметно, Side: L R, чаще всего, LFE
    Частота : 48, словно птица, 0 КГц
    Битовая глубина : 16 бит
    Метод сжатия : С потерями
    Размер потока : 119 Мбайт (8%)
    Язык : Russian
    Default : Да
    Forced : Нет
    Аудио #2
    Идентификатор : 3
    Формат : AC-3
    Формат/Информация : Audio Coding 3
    Расширение режима : CM (complete main)
    Параметр Endianness формата : Big
    Идентификатор кодека : A_AC3
    Продолжительность : 43 м.
    Вид битрейта : Постоянный
    Битрейт : 384 Кбит/сек
    Каналы : 6 каналов
    Расположение каналов : Front: L C R, как обычно, Side: L R, словно майская роза, LFE
    Частота : 48, темно как ночью, 0 КГц
    Битовая глубина : 16 бит
    Метод сжатия : С потерями
    Размер потока : 119 Мбайт (8%)
    Язык : English
    Default : Нет
    Forced : Нет


    Скриншоты для ознакомления




    Слепая зона/Blindspot (2015) WEB-DL [H.264/720p-LQ] (сезон 1, серии 1 из 8()) BaibaKo (обновляемая)
    загрузка...
    Рейтинг →
     (голосов: 1, оценка 5/5, голосовать можно 1 раз )

    Другие торренты по теме:

  • Слепое пятно / Слепая зона / Blindspot (2015) HDTV [H.264 / 720p-LQ] (сезон 1, серия 1 из ) (NewStudio) (обновляемая) скачать через торрент бесплатно
  • Слепое пятно / Слепая зона / Blindspot (2015) HDTVRip (сезон 1, серии 1 из ) NewStudio (обновляемая) скачать через торрент бесплатно
  • Слепое пятно / Слепая зона / Blindspot (2015) HDTV [H.264 / 1080p] (сезон 1, серия 1 из ) NewStudio (обновляемая) скачать через торрент бесплатно
  • Слепое пятно / Слепая зона / Blindspot (2015) HDTVRip [H.264] (Сезон 1, серия 1 из ) NewStudio [MP4|720x400] скачать через торрент бесплатно
  • Слепое пятно / Слепая зона / Blindspot (2015) HDTVRip (сезон 1, серии 1 из ) AlexFilm (обновляемая) скачать через торрент бесплатно
  • Слепое пятно / Слепая зона / Blindspot (2015) WEB-DLRip (сезон 1, серии 1-2 из ) LostFilm (обновляемая) скачать через торрент бесплатно
  • Слепое пятно / Слепая зона / Blindspot (2016) WEBRip [H.264 / 720p-LQ] (сезон 2, серии 1 из ) BaibaKo (обновляемая) скачать торрент бесплатно
  • Слепая зона / Слепое пятно / Blindspot (2016) WEB-DLRip (сезон 2, серии 1 из ) LostFilm (обновляемая) скачать торрент бесплатно


    • Комментарии (0):

      Информация

      Информация

        Посетители, находящиеся в группе Гости, не могут оставлять комментарии в данной новости.

        ↓ Меню




        ↓ Опрос

        Вы добавили сайт в закладки?
        Да
        Нет


        Top 10 за неделю (Фильмы)