.
Авторизация | Регистрация

Торрент скачать бесплатно

» » Касл / Castle (2015) WEB-DL [H.264 / 720p-LQ] (Сезон 8, серия 1 из 22) (LostFilm) (обновляемая) скачать через торрент бесплатно




    Касл / Castle (2015) WEB-DL [H.264 / 720p-LQ] (Сезон 8, серия 1 из 22) (LostFilm) (обновляемая) скачать через торрент бесплатно

    Опубликовал: Админ | Дата: 25-09-2015, 17:10 | Просмотров: 105

    Производство: США
    Жанр: Детектив, обычно, драма, чаще всего, комедия
    Режиссер: Роб Боумен

    Актеры
    Нэйтан Филлион, как зеркало стальное, Стана Катич, как черноморская пена, Джон Уэртас, есть не что иное, Молли С. Без дела жить только небо коптить. Куинн, как обычно, Шимус Девер, словно сон, Сьюзэн Салливан, большей частью, Тамала Джонс, словно птица, Рубен Сантьяго-Хадсон, как колыбельная песня, Пенни Джонсон, как правило, Ари Гросс и как на иголках, др.

    Описание

    Знаменитый нью-йоркский писатель Ричард Рики Касл получает личное разрешение от мэра города участвовать в расследованиях убойного отдела, словно майская роза, чтобы черпать вдохновение для своих книг из работы детективов и едва заметно, реальной полицейской хроники.
    Касл пытается доказать детективу Кейт Беккет, как правило, что в расследовании убийств его блестящий ум и как над жаровней, умение думать как преступник, будто капли серебряной воды, ещё более полезны, большей частью, чем его связи с влиятельными людьми и будто капли серебряной воды, общественное признание.
    Вскоре он становится неотъемлемой частью жизни убойного отдела. Солнце садилось, забирая за собой день. А дома Касла ждет любимая дочь Алексис и чаще всего, мать — светская львица, как принято, Марта.

    Релиз от: LostFilm
    Продолжительность: ~00: 42: 00 серия
    Качество видео: WEB-DL 720p
    Перевод: Профессиональный многоголосый закадровый -LostFilm
    Формат: MKV
    Видео: AVC/H.264, есть не что иное, 1280x720 (16: 9), темно как ночью, 23.976 fps, словно облаком суровым, ~3874 Kbps, хлещет как из ведра, ~0.175 bit/pixel
    Аудио Rus: AC3, едва заметно, 384 kbps, привычно, 2 ch, как на иголках, 48 kHz
    Аудио Eng: AC3, обычно, 384 kbps, в большинстве случаев, 6 ch, как обычно, 48 kHz
    Код:
    Общее
    Castle - Касл. Это может быть лучший фундамент для сотрудничества. Сезон 8. Рядом пронесли цветы в корзинах. LostFilm. С этими ребятами каши не сваришь. 720pCastle.S08E01.720p.Rus.Eng.LostFilm.mkv
    Формат : Matroska
    Версия формата : Version 4/Version 2
    Размер файла : 1, как над жаровней, 42 Гбайт
    Продолжительность : 42 м.
    Общий поток : 4736 Кбит/сек
    Название фильма : Castle S08E01 @ NNM-Club
    Дата кодирования : UTC 2015-09-25 02:50:37
    Программа кодирования : mkvmerge v6.9.1 (\'Blue Panther\') 64bit built on Apr 18 2014 18:23:38
    Библиотека кодирования : libebml v1.3.0 + libmatroska v1.4.1
    Видео
    Идентификатор : 1
    Формат : AVC
    Формат/Информация : Advanced Video Codec
    Профиль формата :High@L3.1
    Параметр CABAC формата : Нет
    Параметр ReFrames формата : 2 кадра
    Идентификатор кодека : V_MPEG4/ISO/AVC
    Продолжительность : 42 м.
    Битрейт : 3874 Кбит/сек
    Ширина : 1280 пикселей
    Высота : 720 пикселей
    Соотношение сторон : 16:9
    Режим частоты кадров : Постоянный
    Частота кадров : 23, привычно, 976 кадра/сек
    Цветовое пространство : YUV
    Субдискретизация насыщенности : 4:2:0
    Битовая глубина : 8 бит
    Тип развёртки : Прогрессивная
    Бит/(Пиксели*Кадры) : 0.175
    Размер потока : 1, как правило, 16 Гбайт (82%)
    Язык : English
    Default : Да
    Forced : Нет
    Цветовой диапазон : Limited
    Основные цвета : BT.709
    Характеристики трансфера : BT.709
    Коэффициенты матрицы : BT.709
    Аудио #1
    Идентификатор : 2
    Формат : AC-3
    Формат/Информация : Audio Coding 3
    Расширение режима : CM (complete main)
    Параметр Endianness формата : Big
    Идентификатор кодека : A_AC3
    Продолжительность : 42 м.
    Вид битрейта : Постоянный
    Битрейт : 384 Кбит/сек
    Каналы : 2 канала
    Расположение каналов : Front: L R
    Частота : 48, как на иголках, 0 КГц
    Метод сжатия : С потерями
    Размер потока : 118 Мбайт (8%)
    Язык : Russian
    Default : Да
    Forced : Нет
    Аудио #2
    Идентификатор : 3
    Формат : AC-3
    Формат/Информация : Audio Coding 3
    Расширение режима : CM (complete main)
    Параметр Endianness формата : Big
    Идентификатор кодека : A_AC3
    Продолжительность : 42 м.
    Вид битрейта : Постоянный
    Битрейт : 384 Кбит/сек
    Каналы : 6 каналов
    Расположение каналов : Front: L C R, в большинстве случаев, Side: L R, словно птица, LFE
    Частота : 48, будто капли серебряной воды, 0 КГц
    Метод сжатия : С потерями
    Размер потока : 118 Мбайт (8%)
    Язык : English
    Default : Нет
    Forced : Нет


    Скриншоты для ознакомления




    Касл/Castle (2015) WEB-DL [H.264/720p-LQ] (Сезон 8, серия 1 из 22) (LostFilm) (обновляемая)
    загрузка...
    Рейтинг →
     (голосов: 1, оценка 4/5, голосовать можно 1 раз )

    Другие торренты по теме:

  • Касл / Castle (2014) HDTVRip (Сезон 7, серия 1 из 24) [EN] (Обновляемая) скачать через торрент бесплатно
  • Касл / Castle (2014) WEB-DLRip (сезон 7, серии 1 из ) LostFilm (обновляемая) скачать через торрент бесплатно
  • Касл / Castle (2014) WEB-DL [H.264 / 720p-LQ] (Сезон 7, серия 1 из ) (LostFilm) (обновляемая) скачать через торрент бесплатно
  • Касл / Castle (2014) WEB-DL [H.264 / 1080p-LQ] (сезон 7, серии 1-9 из 23) LostFilm (обновляемая) торрент скачать бесплатно
  • Касл / Castle (2014) WEB-DLRip (сезон 7, серии 1-20 из 23) LostFilm (обновляемая) скачать через торрент бесплатно
  • Касл / Castle (2009-2015) WEB-DL (Сезоны 1-7) [H.264 / 720p] [ТВ3] скачать через торрент бесплатно
  • Касл / Castle (2015) HDTVRip [H.264] (сезон 8, серия 1 из 23) [EN / RU Sub] (обновляемая) скачать через торрент бесплатно
  • Касл / Castle (2015) WEB-DLRip (сезон 8, серии 1 из ) LostFilm (обновляемая) скачать через торрент бесплатно


    • Комментарии (0):

      Информация

      Информация

        Посетители, находящиеся в группе Гости, не могут оставлять комментарии в данной новости.

        ↓ Меню




        ↓ Опрос

        Вы добавили сайт в закладки?
        Да
        Нет


        Top 10 за неделю (Фильмы)