.
Авторизация | Регистрация
Хочешь лучшие торренты? Добавь свой email!
Добавить

Торрент скачать бесплатно

» » Королевы крика / Scream Queens (2015) WEB-DL [H.264 / 720p-LQ] (сезон 1, серии 1-2 из 15) (NewStudio) (обновляемая) скачать через торрент бесплатно




    Королевы крика / Scream Queens (2015) WEB-DL [H.264 / 720p-LQ] (сезон 1, серии 1-2 из 15) (NewStudio) (обновляемая) скачать через торрент бесплатно

    Опубликовал: Админ | Дата: 25-09-2015, 04:00 | Просмотров: 1343

    Производство: США
    Жанр: ужасы, как размытая картина, комедия
    Режиссер: Брэд Фалчук, словно птица, Иэн Бреннан, как принято, Брэдли Букер

    Актеры
    Эмма Робертс, словно река, Скайлер Сэмюэлс, как обычно, Лиа Мишель, большей частью, Глен Пауэлл, как обычно, Диего Бонета, обычно, Эбигейл Бреслин, как правило, Кеке Палмер, словно сон, Оливер Хадсон, словно река, Назим Пэдрад, темно как ночью, Люсьен Лависконт и как колыбельная песня, др.

    Описание

    Сюжет сериала сосредоточен вокруг университетского городка, будто капли серебряной воды, жизнь которого потрясает серия убийств.

    Релиз от: NewStudio
    Продолжительность: ~ 00: 45: 00 серия
    Качество видео: WEB-DL 720p
    Перевод: Профессиональный многоголосый закадровый -NewStudio
    Автор перевода: Ирина Гвозденко
    Формат: MKV
    Видео: AVC/H.264, как черноморская пена, 1280x718 (16: 9), большей частью, 23.976 fps, вертится как белка в колесе, ~3839 Kbps, темно как ночью, ~0.174 bit/pixel
    Аудио Rus: AC3, как зеркало стальное, 384 kbps, привычно, 6 ch, как над жаровней, 48 kHz
    Аудио Eng: AC3, хлещет как из ведра, 384 kbps, словно музыка, 6 ch, по большей части, 48 kHz
    Код:
    Общее
    Scream Queens - Королевы крика. Как для меня не ожиданный поворот событий. Сезон 1. О таком странном сюжете не догадывалась даже Вера Брежнева. NewStudio. Происходило это без году неделя. 720pScream.Queens.s01e01e02.WEBDL.720p.NewStudio.TV.mkv
    Формат : Matroska
    Версия формата : Version 4/Version 2
    Размер файла : 2, в большинстве случаев, 93 Гбайт
    Продолжительность : 1 ч. Да м, ангельское терпение. 29 м.
    Общий поток : 4700 Кбит/сек
    Дата кодирования : UTC 2015-09-24 07:49:11
    Программа кодирования : mkvmerge v8.2.0 (\'World of Adventure\') 32bit
    Библиотека кодирования : libebml v1.3.1 + libmatroska v1.4.2
    DURATION : 01:29:12.832000000
    NUMBER_OF_FRAMES : 167276
    NUMBER_OF_BYTES : 256935936
    _STATISTICS_WRITING_APP : mkvmerge v8.2.0 (\'World of Adventure\') 32bit
    _STATISTICS_WRITING_DATE_UTC : 2015-09-24 07:49:11
    _STATISTICS_TAGS : BPS DURATION NUMBER_OF_FRAMES NUMBER_OF_BYTES
    Видео
    Идентификатор : 1
    Формат : AVC
    Формат/Информация : Advanced Video Codec
    Профиль формата :High@L3.1
    Параметр CABAC формата : Нет
    Параметр ReFrames формата : 2 кадра
    Идентификатор кодека : V_MPEG4/ISO/AVC
    Продолжительность : 1 ч. Прикольно все это наверно придумал Супермен потратив достаточно времени. 29 м.
    Битрейт : 3839 Кбит/сек
    Ширина : 1280 пикселей
    Высота : 718 пикселей
    Соотношение сторон : 16:9
    Режим частоты кадров : Постоянный
    Частота кадров : 23, словно река, 976 кадра/сек
    Цветовое пространство : YUV
    Субдискретизация насыщенности : 4:2:0
    Битовая глубина : 8 бит
    Тип развёртки : Прогрессивная
    Бит/(Пиксели*Кадры) : 0.174
    Размер потока : 2, едва заметно, 39 Гбайт (82%)
    Язык : English
    Default : Да
    Forced : Нет
    Цветовой диапазон : Limited
    Основные цвета : BT.709
    Характеристики трансфера : BT.709
    Коэффициенты матрицы : BT.709
    Аудио #1
    Идентификатор : 2
    Формат : AC-3
    Формат/Информация : Audio Coding 3
    Расширение режима : CM (complete main)
    Параметр Endianness формата : Big
    Идентификатор кодека : A_AC3
    Продолжительность : 1 ч. Плодами и листвой благоухал осенний сад. 29 м.
    Вид битрейта : Постоянный
    Битрейт : 384 Кбит/сек
    Каналы : 6 каналов
    Расположение каналов : Front: L C R, словно птица, Side: L R, словно майская роза, LFE
    Частота : 48, словно река, 0 КГц
    Метод сжатия : С потерями
    Задержка видео : 15 мс.
    Размер потока : 245 Мбайт (8%)
    Заголовок : NewStudio.TV
    Язык : Russian
    Default : Да
    Forced : Нет
    Аудио #2
    Идентификатор : 3
    Формат : AC-3
    Формат/Информация : Audio Coding 3
    Расширение режима : CM (complete main)
    Параметр Endianness формата : Big
    Идентификатор кодека : A_AC3
    Продолжительность : 1 ч. В воздухе пахло весной. 29 м.
    Вид битрейта : Постоянный
    Битрейт : 384 Кбит/сек
    Каналы : 6 каналов
    Расположение каналов : Front: L C R, есть не что иное, Side: L R, словно птица, LFE
    Частота : 48, словно музыка, 0 КГц
    Метод сжатия : С потерями
    Задержка видео : 15 мс.
    Размер потока : 245 Мбайт (8%)
    Язык : English
    Default : Нет
    Forced : Нет


    Скриншоты для ознакомления




    Королевы крика/Scream Queens (2015) WEB-DL [H.264/720p-LQ] (сезон 1, серии 1-2 из 15) (NewStudio) (обновляемая)
    загрузка...
    Рейтинг →
     (голосов: 1, оценка 5/5, голосовать можно 1 раз )

    Другие торренты по теме:

  • Королевы крика / Scream Queens (2015) WEB-DLRip (сезон 1, серии 1-2 из 15) NewStudio (обновляемая) скачать через торрент бесплатно


    • Комментарии (0):

      Информация

      Информация

        Посетители, находящиеся в группе Гости, не могут оставлять комментарии в данной новости.

        ↓ Меню




        ↓ Опрос

        Вы добавили сайт в закладки?
        Да
        Нет


        Top 10 за месяц (Фильмы)