.
Авторизация | Регистрация
Хочешь лучшие торренты? Добавь свой email!
Добавить

Торрент скачать бесплатно

» » Блант говорит / Blunt Talk (2015) HDTV [H.264 / 720p-LQ] (cезон 1, серии 1-5 из 10) AlexFilm (обновляемая) скачать через торрент бесплатно




    Блант говорит / Blunt Talk (2015) HDTV [H.264 / 720p-LQ] (cезон 1, серии 1-5 из 10) AlexFilm (обновляемая) скачать через торрент бесплатно

    Опубликовал: Админ | Дата: 24-09-2015, 04:00 | Просмотров: 94

    Производство: США/Fuzzy Door Productions, Media Rights Capital
    Жанр: комедия
    Режиссер: Тристрам Шапиро, Билл Д’Элиа

    Актеры
    Патрик Стюарт, Эдриан Скарборо, Тимм Шарп, Джеки Уивер, Долли Уэллс, Каран Сони, Мэри Холлэнд, Ричард Льюис, Кен Уейлер, Эйдан Кларк и др.

    Описание

    Эксцентричный британский телеведущий Уолтер Блант переезжает в Лос-Анджелес вместе со своим слугой-алкоголиком и багажом из нескольких неудачных браков, чтобы вести собственное ток-шоу, в котором Блант пытается давать американцам мудрые на его взгляд советы о правильном образе жизни, мыслях и поведении, хотя самого Уолтера трудно назвать примером для подражания.

    Дата мировой премьеры: 22.08.2015
    Продолжительность: ~ 00: 29: 00 серия
    Качество видео: HDTVRip 720p
    Перевод: Многоголосый закадровый, профессиональный - (AlexFilm )
    Видео: AVC/H.264, 1280x720 (16: 9), ~3111 Kbps
    Аудио №1 Rus: AC3, 48, 0 KHz, 6 ch, 384 kbps - многоголосый закадровый
    Аудио №2 Eng: AC3, 48, 0 KHz, 6 ch, 384 kbps - оригинал
    Код:

    Общее
    Формат : Matroska
    Версия формата : Version 4/Version 2
    Размер файла : 855 Мбайт
    Продолжительность : 30 м.
    Общий поток : 3958 Кбит/сек
    Название фильма : Blunt Talk.1x01 @ AlexFilm
    Дата кодирования : UTC 2015-09-17 20:58:29
    Программа кодирования : mkvmerge v7.1.0 (\'Good Love\') 64bit built on Jul 27 2014 13:06:55
    Библиотека кодирования : libebml v1.3.0 + libmatroska v1.4.1
    Видео
    Идентификатор : 1
    Формат : AVC
    Формат/Информация : Advanced Video Codec
    Профиль формата :High@L4.1
    Параметр CABAC формата : Да
    Параметр ReFrames формата : 5 кадров
    Идентификатор кодека : V_MPEG4/ISO/AVC
    Продолжительность : 30 м.
    Битрейт : 3111 Кбит/сек
    Ширина : 1280 пикселей
    Высота : 720 пикселей
    Соотношение сторон : 16:9
    Режим частоты кадров : Постоянный
    Частота кадров : 23, 976 кадра/сек
    Цветовое пространство : YUV
    Субдискретизация насыщенности : 4:2:0
    Битовая глубина : 8 бит
    Тип развёртки : Прогрессивная
    Бит/(Пиксели*Кадры) : 0.141
    Размер потока : 672 Мбайт (79%)
    Библиотека кодирования : x264 core 148 r2579 73ae2d1
    Настройки программы : cabac=1/ref=5/deblock=1:0:0/analyse=0x3:0x113/me=umh/subme=8/psy=1/psy_rd=1.00:0.00/mixed_ref=1/me_range=16/chroma_me=1/trellis=1/8x8dct=1/cqm=0/deadzone=21, 11/fast_pskip=1/chroma_qp_offset=-2/threads=18/lookahead_threads=3/sliced_threads=0/nr=0/decimate=1/interlaced=0/bluray_compat=0/constrained_intra=0/bframes=3/b_pyramid=2/b_adapt=2/b_bias=0/direct=3/weightb=1/open_gop=0/weightp=2/keyint=250/keyint_min=23/scenecut=40/intra_refresh=0/rc_lookahead=50/rc=crf/mbtree=1/crf=18.0/qcomp=0.60/qpmin=0/qpmax=69/qpstep=4/ip_ratio=1.40/aq=1:1.00
    Язык : English
    Default : Да
    Forced : Нет
    Цветовой диапазон : Limited
    Коэффициенты матрицы : BT.709
    Аудио #1
    Идентификатор : 2
    Формат : AC-3
    Формат/Информация : Audio Coding 3
    Расширение режима : CM (complete main)
    Параметр Endianness формата : Big
    Идентификатор кодека : A_AC3
    Продолжительность : 30 м.
    Вид битрейта : Постоянный
    Битрейт : 384 Кбит/сек
    Каналы : 6 каналов
    Расположение каналов : Front: L C R, Side: L R, LFE
    Частота : 48, 0 КГц
    Метод сжатия : С потерями
    Размер потока : 82, 9 Мбайт (10%)
    Заголовок : DD5.1 AlexFilm
    Язык : Russian
    Default : Да
    Forced : Нет
    Аудио #2
    Идентификатор : 3
    Формат : AC-3
    Формат/Информация : Audio Coding 3
    Расширение режима : CM (complete main)
    Параметр Endianness формата : Big
    Идентификатор кодека : A_AC3
    Продолжительность : 30 м.
    Вид битрейта : Постоянный
    Битрейт : 384 Кбит/сек
    Каналы : 6 каналов
    Расположение каналов : Front: L C R, Side: L R, LFE
    Частота : 48, 0 КГц
    Метод сжатия : С потерями
    Размер потока : 82, 9 Мбайт (10%)
    Заголовок : DD5.1 Original
    Язык : English
    Default : Нет
    Forced : Нет


    Скриншоты для ознакомления




    Блант говорит/Blunt Talk (2015) HDTV [H.264/720p-LQ] (cезон 1, серии 1-5 из 10) AlexFilm (обновляемая)
    загрузка...
    Рейтинг →
     (голосов: 1, оценка 3/5, голосовать можно 1 раз )

    Другие торренты по теме:

  • Блант без обиняков / Блант говорит / Blunt Talk (2015) WEB-DLRip (cезон 1, серии 1-10 из 10) AlexFilm скачать через торрент бесплатно
  • Блант говорит / Blunt Talk (2015) HDTV [H.264 / 720p-LQ] (cезон 1, серии 1 из 10) Jaskier (обновляемая) скачать через торрент бесплатно
  • Блант говорит / Blunt Talk (2016) WEB-DL [H.264 / 720p-LQ] (сезон 2, серии 1-10 из 10) AlexFilm


    • Комментарии (0):

      Информация

      Информация

        Посетители, находящиеся в группе Гости, не могут оставлять комментарии в данной новости.

        ↓ Меню




        ↓ Опрос

        Вы добавили сайт в закладки?
        Да
        Нет


        Top 10 за месяц (Фильмы)