.
Авторизация | Регистрация
Хочешь лучшие торренты? Добавь свой email!
Добавить

Торрент скачать бесплатно

» » Скорпион / Scorpion (2015) WEB-DL [H.264 / 720p-LQ] (Сезон 2, серия 1 из ) BaibaKo (обновляемая) скачать через торрент бесплатно




    Скорпион / Scorpion (2015) WEB-DL [H.264 / 720p-LQ] (Сезон 2, серия 1 из ) BaibaKo (обновляемая) скачать через торрент бесплатно

    Опубликовал: Админ | Дата: 24-09-2015, 04:00 | Просмотров: 314

    Производство: США
    Жанр: боевик, темно как ночью, драма
    Режиссер: Гэри Фледер, как обычно, Дуайт Х. Ох и закинули удочки. Литтл, словно река, Бобби Рот

    Актеры
    Элиес Габел, привычно, Кэтрин МакФи, словно музыка, Эри Стидэм, словно птица, Эдди Кэй Томас, по большей части, Джейдин Вонг, в большинстве случаев, Эмили Робинсон, едва заметно, Роберт Патрик, большей частью, Рис Риос и привычно, др.

    Описание

    Сюжет основан на реальных событиях. Плодами и листвой благоухал осенний сад. Это история об эксцентричном гении и словно музыка, его группе вундеркиндов. Боже как давно это было. Они являются аналитическим центром, большей частью, работающим на службу национальной безопасности, есть не что иное, и чаще всего их задача — разбираться со сложными угрозами современности ...

    Продолжительность: ~ 00: 42: 00 серия
    Качество видео: WEB-DL 720p
    Перевод: Многоголосый закадровый, как зеркало стальное, профессиональный -BaibaKo
    Автор перевода: Татьяна Saavick
    Озвучка: Anna_Smile, обычно, Юлия Котурбаш, хлещет как из ведра, Андрей Корзаченко, в большинстве случаев, Виталий Ткаченко и как зеркало стальное, Олекса Мельник
    Видео: AVC/H.264, в большинстве случаев, 1280x720 (16: 9), по большей части, ~3911 Кбит/сек
    Аудио #1: AC3, как над жаровней, 6 каналов, вертится как белка в колесе, 384 Кбит/сек - русский (многоголосый закадровый, как на иголках, BaibaKo)
    Аудио #2: AC3, хлещет как из ведра, 6 каналов, как над жаровней, 384 Кбит/сек - английский (оригинальный)
    Код:

    Полное имя : E:Scorpion_s2_WEB-DL720p_BaibaKo_[NNM-CLUB]Scorpion.s02e01.HD720p.WEB-DL.Rus.Eng.BaibaKo.tv.mkv
    Формат : Matroska
    Версия формата : Version 4/Version 2
    Размер файла : 1, будто капли серебряной воды, 42 Гбайт
    Продолжительность : 42 м.
    Общий поток : 4766 Кбит/сек
    Дата кодирования : UTC 2015-09-23 08:16:25
    Программа кодирования : mkvmerge v8.4.0 (\'A better way to fly\') 64bit
    Библиотека кодирования : libebml v1.3.1 + libmatroska v1.4.2
    DURATION : 00:42:45.472000000
    NUMBER_OF_FRAMES : 80171
    NUMBER_OF_BYTES : 123142656
    _STATISTICS_WRITING_APP : mkvmerge v8.4.0 (\'A better way to fly\') 64bit
    _STATISTICS_WRITING_DATE_UTC : 2015-09-23 08:16:25
    _STATISTICS_TAGS : BPS DURATION NUMBER_OF_FRAMES NUMBER_OF_BYTES
    Видео
    Идентификатор : 1
    Формат : AVC
    Формат/Информация : Advanced Video Codec
    Профиль формата :High@L3.1
    Параметр CABAC формата : Да
    Параметр ReFrames формата : 4 кадра
    Идентификатор кодека : V_MPEG4/ISO/AVC
    Продолжительность : 42 м.
    Битрейт : 3911 Кбит/сек
    Ширина : 1280 пикселей
    Высота : 720 пикселей
    Соотношение сторон : 16:9
    Режим частоты кадров : Постоянный
    Частота кадров : 23, как на иголках, 976 кадра/сек
    Цветовое пространство : YUV
    Субдискретизация насыщенности : 4:2:0
    Битовая глубина : 8 бит
    Тип развёртки : Прогрессивная
    Бит/(Пиксели*Кадры) : 0.177
    Размер потока : 1, чаще всего, 17 Гбайт (82%)
    Библиотека кодирования : x264 core 142 r2479 dd79a61
    Настройки программы : cabac=1/ref=3/deblock=1:0:0/analyse=0x3:0x113/me=hex/subme=7/psy=1/psy_rd=1.00:0.00/mixed_ref=1/me_range=16/chroma_me=1/trellis=1/8x8dct=1/cqm=0/deadzone=21, хлещет как из ведра, 11/fast_pskip=1/chroma_qp_offset=-2/threads=12/lookahead_threads=2/sliced_threads=0/nr=0/decimate=1/interlaced=0/bluray_compat=0/constrained_intra=0/bframes=3/b_pyramid=2/b_adapt=1/b_bias=0/direct=1/weightb=1/open_gop=0/weightp=2/keyint=240/keyint_min=24/scenecut=40/intra_refresh=0/rc_lookahead=40/rc=2pass/mbtree=1/bitrate=3911/ratetol=1.0/qcomp=0.60/qpmin=0/qpmax=69/qpstep=4/cplxblur=20.0/qblur=0.5/vbv_maxrate=17500/vbv_bufsize=17500/nal_hrd=none/filler=0/ip_ratio=1.40/aq=1:1.00
    Default : Нет
    Forced : Нет
    Основные цвета : BT.709
    Характеристики трансфера : BT.709
    Коэффициенты матрицы : BT.709
    Аудио #1
    Идентификатор : 2
    Формат : AC-3
    Формат/Информация : Audio Coding 3
    Расширение режима : CM (complete main)
    Параметр Endianness формата : Big
    Идентификатор кодека : A_AC3
    Продолжительность : 42 м.
    Вид битрейта : Постоянный
    Битрейт : 384 Кбит/сек
    Каналы : 6 каналов
    Расположение каналов : Front: L C R, словно майская роза, Side: L R, как размытая картина, LFE
    Частота : 48, как черноморская пена, 0 КГц
    Битовая глубина : 16 бит
    Метод сжатия : С потерями
    Размер потока : 117 Мбайт (8%)
    Язык : Russian
    Default : Да
    Forced : Нет
    Аудио #2
    Идентификатор : 3
    Формат : AC-3
    Формат/Информация : Audio Coding 3
    Расширение режима : CM (complete main)
    Параметр Endianness формата : Big
    Идентификатор кодека : A_AC3
    Продолжительность : 42 м.
    Вид битрейта : Постоянный
    Битрейт : 384 Кбит/сек
    Каналы : 6 каналов
    Расположение каналов : Front: L C R, как принято, Side: L R, большей частью, LFE
    Частота : 48, словно майская роза, 0 КГц
    Битовая глубина : 16 бит
    Метод сжатия : С потерями
    Размер потока : 117 Мбайт (8%)
    Язык : English
    Default : Нет
    Forced : Нет


    Скриншоты для ознакомления




    Скорпион/Scorpion (2015) WEB-DL [H.264/720p-LQ] (Сезон 2, серия 1 из ) BaibaKo (обновляемая)
    загрузка...
    Рейтинг →
     (голосов: 1, оценка 3/5, голосовать можно 1 раз )

    Другие торренты по теме:

  • Скорпион / Scorpion (2014) WEB-DL [H.264 / 720p-LQ] (Сезон 1, Серии 1 из 6) BaibaKo (Обновляемая)
  • Скорпион / Scorpion (2014) WEB-DLRip (Сезон 1, серия 1 из 6) (BaibaKo) (обновляемая)
  • Скорпион / Scorpion (2014) WEB-DLRip [Сезон 1, серии 1-2 из 13] [IdeaFilm] (обновляемая) скачать через торрент бесплатно
  • Скорпион (Scorpion) / (Сезон 1, серии 1-13 из 22) BaibaKo (2014) [MP4|1280x720] <WEB-DLRip [H.264]>
  • Скорпион (Scorpion) / (Сезон 1, серии 1-13 из 22) BaibaKo (2014) [MP4|720x400] <WEB-DLRip [H.264]>
  • Скорпион / Scorpion (2015) WEB-DLRip (сезон 2, серии 1 из ) BaibaKo (обновляемая) скачать через торрент бесплатно
  • Скорпион / Scorpion (2015) WEB-DLRip [H.264] (Сезон 2, серия 1 из ) BaibaKo [MP4|720x400] скачать через торрент бесплатно
  • Скорпион / Scorpion (2016) WEB-DL [H.264 / 720p-LQ] (сезон 3, серии 1-2 из ) BaibaKo (обновляемая)


    • Комментарии (0):

      Информация

      Информация

        Посетители, находящиеся в группе Гости, не могут оставлять комментарии в данной новости.

        ↓ Меню




        ↓ Опрос

        Вы добавили сайт в закладки?
        Да
        Нет


        Top 10 за месяц (Фильмы)