.
Авторизация | Регистрация
Хочешь лучшие торренты? Добавь свой email!
Добавить

Торрент скачать бесплатно

» » Безумный Макс. Дорога ярости / Mad Max. Fury Road (2015) BDRip 3D [H.264 / 1080p] [Вертикальная анаморфная стереопара] [hand made 16:9] скачать через торрент бесплатно




    Безумный Макс. Дорога ярости / Mad Max. Fury Road (2015) BDRip 3D [H.264 / 1080p] [Вертикальная анаморфная стереопара] [hand made 16:9] скачать через торрент бесплатно

    Опубликовал: Админ | Дата: 24-09-2015, 04:00 | Просмотров: 108

    Производство: Австралия, США
    Жанр: Фантастика, Боевик, Приключения
    Режиссер: Джордж Миллер

    Актеры
    Том Харди, Шарлиз Терон, Николас Холт, Хью Кияс-Бёрн, Райли Кио, Роузи Хантингтон-Уайтли, Зои Кравиц, Эбби Ли, Кортни Итон, Нэйтан Джонс.

    Описание

    Преследуемый призраками беспокойного прошлого, Макс уверен, что лучший способ выжить — скитаться в одиночестве. Несмотря на это, он присоединяется к бунтарям, бегущим через всю пустыню на боевой фуре, под предводительством военачальника Фуриосы.
    Они пытаются сбежать из Цитадели, страдающей от тирании Несмертного Джо, у которого они забрали кое-что очень ценное. Разъярённый военачальник бросает все свои силы на погоню за мятежниками, ступая на дорогу войны — дорогу ярости.

    Дата мировой премьеры: 07: 05: 2015
    Дата премьеры в России: 14: 05: 2015
    Дата выхода DVD/Blu-ray релиза: 17.09.2015
    Продолжительность: 2: 00: 20
    Качество видео: BDRip
    Перевод: Дублированный
    Язык субтитров: Русский, Английский
    Вид субтитров: Вшитые
    Видео: AVC/H.264, 1920х1080, ~12, 6 mbps
    Аудио №1: AC3, 6 ch, 640 kbps, CBRДублированный
    Аудио №2: AC3, 6 ch, 640 kbps, CBRАнглийский
    Семпл: Скачать
    Код:

    Общее
    Полное имя : D:КиноБезумный Макс (3D) [crop].mkv
    Формат : Matroska
    Версия формата : Version 4/Version 2
    Размер файла : 11, 9 Гбайт
    Продолжительность : 2 ч. 0 м.
    Общий поток : 14, 2 Мбит/сек
    Название фильма : Безумный Макс (3D) [crop]
    Дата кодирования : UTC 2015-08-21 03:04:05
    Программа кодирования : mkvmerge v8.3.0 (\'Over the Horizon\') 64bit
    Библиотека кодирования : libebml v1.3.1 + libmatroska v1.4.2
    DURATION : 01:57:29.167000000
    NUMBER_OF_FRAMES : 1718
    NUMBER_OF_BYTES : 4559368
    _STATISTICS_WRITING_APP : mkvmerge v8.3.0 (\'Over the Horizon\') 64bit
    _STATISTICS_WRITING_DATE_UTC : 2015-08-21 03:04:05
    _STATISTICS_TAGS : BPS DURATION NUMBER_OF_FRAMES NUMBER_OF_BYTES
    Видео
    Идентификатор : 1
    Формат : AVC
    Формат/Информация : Advanced Video Codec
    Профиль формата :High@L4.1
    Параметр CABAC формата : Да
    Параметр ReFrames формата : 4 кадра
    Идентификатор кодека : V_MPEG4/ISO/AVC
    Продолжительность : 2 ч. 0 м.
    Битрейт : 12, 6 Мбит/сек
    Ширина : 1920 пикселей
    Высота : 1080 пикселей
    Соотношение сторон : 16:9
    Режим частоты кадров : Постоянный
    Частота кадров : 23, 976 кадра/сек
    Цветовое пространство : YUV
    Субдискретизация насыщенности : 4:2:0
    Битовая глубина : 8 бит
    Тип развёртки : Прогрессивная
    Бит/(Пиксели*Кадры) : 0.254
    Размер потока : 10, 6 Гбайт (89%)
    Библиотека кодирования : x264 core 142
    Default : Да
    Forced : Нет
    Цветовой диапазон : Limited
    Основные цвета : BT.709
    Характеристики трансфера : BT.709
    Коэффициенты матрицы : BT.709
    Аудио #1
    Идентификатор : 2
    Формат : AC-3
    Формат/Информация : Audio Coding 3
    Расширение режима : CM (complete main)
    Параметр Endianness формата : Big
    Идентификатор кодека : A_AC3
    Продолжительность : 2 ч. 0 м.
    Вид битрейта : Постоянный
    Битрейт : 640 Кбит/сек
    Каналы : 6 каналов
    Расположение каналов : Front: L C R, Side: L R, LFE
    Частота : 48, 0 КГц
    Метод сжатия : С потерями
    Размер потока : 551 Мбайт (5%)
    Язык : Russian
    Default : Да
    Forced : Нет
    Аудио #2
    Идентификатор : 3
    Формат : AC-3
    Формат/Информация : Audio Coding 3
    Расширение режима : CM (complete main)
    Параметр Endianness формата : Big
    Идентификатор кодека : A_AC3
    Продолжительность : 2 ч. 0 м.
    Вид битрейта : Постоянный
    Битрейт : 640 Кбит/сек
    Каналы : 6 каналов
    Расположение каналов : Front: L C R, Side: L R, LFE
    Частота : 48, 0 КГц
    Метод сжатия : С потерями
    Размер потока : 551 Мбайт (5%)
    Язык : English
    Default : Нет
    Forced : Нет
    Текст #1
    Идентификатор : 4
    Формат : PGS
    Режим смешивания : zlib
    Идентификатор кодека : S_HDMV/PGS
    Идентификатор кодека/Информация : Picture based subtitle format used on BDs/HD-DVDs
    Язык : English
    Default : Нет
    Forced : Нет
    Текст #2
    Идентификатор : 5
    Формат : PGS
    Режим смешивания : zlib
    Идентификатор кодека : S_HDMV/PGS
    Идентификатор кодека/Информация : Picture based subtitle format used on BDs/HD-DVDs
    Язык : Russian
    Default : Нет
    Forced : Нет


    Скриншоты для ознакомления




    Безумный Макс. Дорога ярости/Mad Max. Fury Road (2015) BDRip 3D [H.264/1080p] [Вертикальная анаморфная стереопара] [hand made 16:9]
    загрузка...
    Рейтинг →
     (голосов: 1, оценка 5/5, голосовать можно 1 раз )

    Другие торренты по теме:

  • Безумный Макс: Дорога ярости / Mad Max: Fury Road (2015) WEBRip [H.264 / 720p-LQ] [Трейлер]
  • Безумный Макс: Дорога ярости / Mad Max: Fury Road (2015) WEBRip [1080p] [Трейлер] [EN]
  • Безумный Макс / Mad Max (2014) WEBRip [H.264 / 1080p-LQ] [Трейлер]
  • Безумный Макс: Дорога ярости / Mad Max: Fury Road (2015) DCPRip [2K] [Трейлер]
  • Безумный Макс: Дорога ярости / Mad Max: Fury Road (2015) WEBRip [1080p] [Трейлер #2] скачать через торрент бесплатно
  • Безумный Макс: Дорога ярости / Mad Max: Fury Road (2015) WEBRip [1080p] [Трейлер #3] скачать через торрент бесплатно
  • Tom Holkenborg aka Junkie XL - Безумный Макс: Дорога ярости / Mad Max: Fury Road (Original Motion Picture Soundtrack) (2015) Deluxe Version [AAC|WEB-DL|256 кб / с]<Soundtrack> скачать через торрент бесплатно
  • Трилогия Безумный Макс / Trilogy Mad Max (1979 / 1981 / 1985) BDRip [H.264] скачать через торрент бесплатно


    • Комментарии (0):

      Информация

      Информация

        Посетители, находящиеся в группе Гости, не могут оставлять комментарии в данной новости.

        ↓ Меню




        ↓ Опрос

        Вы добавили сайт в закладки?
        Да
        Нет


        Top 10 за месяц (Фильмы)