.
Авторизация | Регистрация
Хочешь лучшие торренты? Добавь свой email!
Добавить

Торрент скачать бесплатно

» » Измены (2015) WEB-DL [H.264 / 720p-LQ] (сезон 1, серии 1-2 из 16) (обновляемая) скачать через торрент бесплатно




    Измены (2015) WEB-DL [H.264 / 720p-LQ] (сезон 1, серии 1-2 из 16) (обновляемая) скачать через торрент бесплатно

    Опубликовал: Админ | Дата: 23-09-2015, 04:00 | Просмотров: 94

    Производство: Россия
    Жанр: мелодрама
    Режиссер: Вадим Перельман

    Актеры
    Елена Лядова, Глафира Тарханова, Кирилл Кяро, Евгений Стычкин, Надежда Борисова, Михаил Трухин, Денис Шведов, Вячеслав Чепурченко, Ольга Хохлова, Павел Майков, Артём Маркарьян, Александр Клюквин, Юлия Яблонская, Дмитрий Блохин, Владимир Белоусов, Лукерья Ильяшенко, Екатерина Куликова, Лиза Блохина и др.

    Описание

    Невероятная история молодой женщины, у которой был муж и трое любовников. В сериале рассказывается о том, что происходят с судьбами людей, которые и которым изменяют.

    Дата премьеры в России: 21 сентября 2015
    Продолжительность: ~ 00: 42: 00 серия
    Качество видео: WEB-DL 720p
    Формат: MKV
    Видео: AVC/H.264, 1280x720 (16: 9), 25 fps, ~3058 Kbps, ~0.133 bit/pixel
    Аудио: AC3, 192 kbps, 2 ch, 48 kHz
    Код:
    Общее
    Измены. О таком странном сюжете не догадывалась даже Ангела Меркель. Сезон 1. 720p1. Измены (2015). WEB-DL 720p.mkv
    Формат : Matroska
    Версия формата : Version 4/Version 2
    Размер файла : 934 Мбайт
    Продолжительность : 39 м.
    Общий поток : 3316 Кбит/сек
    Дата кодирования : UTC 2015-09-22 09:55:29
    Программа кодирования : mkvmerge v6.9.1 (\'Blue Panther\') 64bit built on Apr 18 2014 18:23:38
    Библиотека кодирования : libebml v1.3.0 + libmatroska v1.4.1
    Видео
    Идентификатор : 1
    Формат : AVC
    Формат/Информация : Advanced Video Codec
    Профиль формата : High@L4
    Параметр CABAC формата : Да
    Параметр ReFrames формата : 8 кадров
    Идентификатор кодека : V_MPEG4/ISO/AVC
    Продолжительность : 39 м.
    Битрейт : 3058 Кбит/сек
    Ширина : 1280 пикселей
    Высота : 720 пикселей
    Соотношение сторон : 16:9
    Режим частоты кадров : Постоянный
    Частота кадров : 25, 000 кадров/сек
    Цветовое пространство : YUV
    Субдискретизация насыщенности : 4:2:0
    Битовая глубина : 8 бит
    Тип развёртки : Прогрессивная
    Бит/(Пиксели*Кадры) : 0.133
    Размер потока : 862 Мбайт (92%)
    Библиотека кодирования : x264 core 142 r2455 021c0dc
    Настройки программы : cabac=1/ref=8/deblock=1:-1:-1/analyse=0x3:0x133/me=umh/subme=9/psy=1/psy_rd=1.00:0.15/mixed_ref=1/me_range=16/chroma_me=1/trellis=2/8x8dct=1/cqm=0/deadzone=21, 11/fast_pskip=1/chroma_qp_offset=-3/threads=24/lookahead_threads=2/sliced_threads=0/nr=0/decimate=1/interlaced=0/bluray_compat=0/constrained_intra=0/bframes=3/b_pyramid=2/b_adapt=2/b_bias=0/direct=3/weightb=1/open_gop=0/weightp=2/keyint=250/keyint_min=25/scenecut=40/intra_refresh=0/rc_lookahead=60/rc=crf/mbtree=1/crf=17.0/qcomp=0.60/qpmin=0/qpmax=69/qpstep=4/vbv_maxrate=3600/vbv_bufsize=3600/crf_max=0.0/nal_hrd=none/filler=0/ip_ratio=1.40/aq=1:1.00
    Язык : Russian
    Default : Да
    Forced : Да
    Аудио
    Идентификатор : 2
    Формат : AC-3
    Формат/Информация : Audio Coding 3
    Расширение режима : CM (complete main)
    Параметр Endianness формата : Big
    Идентификатор кодека : A_AC3
    Продолжительность : 39 м.
    Вид битрейта : Постоянный
    Битрейт : 192 Кбит/сек
    Каналы : 2 канала
    Расположение каналов : Front: L R
    Частота : 48, 0 КГц
    Метод сжатия : С потерями
    Размер потока : 54, 1 Мбайт (6%)
    Язык : Russian
    Default : Да
    Forced : Да


    Скриншоты для ознакомления




    Измены (2015) WEB-DL [H.264/720p-LQ] (сезон 1, серии 1-2 из 16) (обновляемая)
    загрузка...
    Рейтинг →
     (голосов: 1, оценка 5/5, голосовать можно 1 раз )

    Другие торренты по теме:

  • Измены (2015) SATRip (серии 1-2 из 16) (обновляемая) скачать через торрент бесплатно
  • Измены (2015) WEB-DLRip (серии 01-06 из 16) (обновляемая) скачать через торрент бесплатно
  • Измены (2015) WEB-DLRip [H.264] (серии 1-8 из 16) (обновляемая) скачать через торрент бесплатно
  • Валерий Исхаков | Легкий привкус измены (2014) [MP3]
  • Робин Данбар | Наука любви и измены (2016) [FB2]
  • Мария Воронова | Клиника измены (2016) [MP3]
  • Цена измены / Derailed (2005) BDRip [H.264 / 720p-LQ]
  • Станислав Десятсков | Смерть Петра Первого. Интриги, заговоры, измены (2013) [MP3]


    • Комментарии (0):

      Информация

      Информация

        Посетители, находящиеся в группе Гости, не могут оставлять комментарии в данной новости.

        ↓ Меню




        ↓ Опрос

        Вы добавили сайт в закладки?
        Да
        Нет


        Top 10 за месяц (Фильмы)