.
Авторизация | Регистрация
Хочешь лучшие торренты? Добавь свой email!
Добавить

Торрент скачать бесплатно

» » Измены (2015) SATRip (серии 1-2 из 16) (обновляемая) скачать через торрент бесплатно




    Измены (2015) SATRip (серии 1-2 из 16) (обновляемая) скачать через торрент бесплатно

    Опубликовал: Админ | Дата: 22-09-2015, 04:00 | Просмотров: 103

    Производство: Россия /
    Жанр: мелодрама
    Режиссер: Вадим Перельман

    Актеры
    Елена Лядова, Глафира Тарханова, Кирилл Кяро, Евгений Стычкин, Надежда Борисова, Михаил Трухин, Денис Шведов, Вячеслав Чепурченко, Ольга Хохлова, Павел Майков, Артём Маркарьян, Александр Клюквин, Юлия Яблонская, Дмитрий Блохин, Владимир Белоусов, Лукерья Ильяшенко, Екатерина Куликова, Лиза Блохина и др.

    Описание

    Невероятная история молодой женщины, у которой был муж и трое любовников. В сериале рассказывается о том, что происходят с судьбами людей, которые и которым изменяют.

    Дата премьеры в России: 21 сентября 2015
    Продолжительность: ~ 00: 42: 00 серия
    Качество видео: SATRip
    Видео: XviD, 720x400 (16: 9), ~1800 kb/s
    Аудио: MPEG Layer 3, 48, 0 kHz, 2 ch, 128 kb/s, CBR
    Общее
    Полное имя : D: Измены (2015) SATRip2.Измены.SATRip.avi
    Формат : AVI
    Формат/Информация : Audio Video Interleave
    Размер файла : 594 Мбайт
    Продолжительность : 43 м.
    Общий поток : 1929 Кбит/сек
    Программа кодирования : VirtualDubMod 1.5.10.3 |www.virtualdub-fr.org|| (build 2550/release)
    Библиотека кодирования : VirtualDub build 29808/release
    Видео
    Идентификатор : 0
    Формат : MPEG-4 Visual
    Профиль формата : Advanced Simple@L5
    Параметр BVOP формата : 3
    Параметр QPel формата : Нет
    Параметр GMC формата : Без точки перехода
    Параметр матрицы формата : Default (H.263)
    Идентификатор кодека : XVID
    Идентификатор кодека/Подсказка : XviD
    Продолжительность : 43 м.
    Битрейт : 1791 Кбит/сек
    Ширина : 720 пикселей
    Высота : 400 пикселей
    Соотношение сторон : 16: 9
    Частота кадров : 25, 000 кадров/сек
    Цветовое пространство : YUV
    Субдискретизация насыщенности : 4: 2: 0
    Битовая глубина : 8 бит
    Тип развёртки : Прогрессивная
    Метод сжатия : С потерями
    Бит/(Пиксели*Кадры) : 0.249
    Размер потока : 552 Мбайт (93%)
    Библиотека кодирования : XviD 1.2.1 (UTC 2008-12-04)
    Аудио
    Идентификатор : 1
    Формат : MPEG Audio
    Версия формата : Version 1
    Профиль формата : Layer 3
    Идентификатор кодека : 55
    Идентификатор кодека/Подсказка : MP3
    Продолжительность : 43 м.
    Вид битрейта : Постоянный
    Битрейт : 128 Кбит/сек
    Каналы : 2 канала
    Частота : 48, 0 КГц
    Метод сжатия : С потерями
    Размер потока : 39, 4 Мбайт (7%)
    Выравнивание : Соединение по промежуткам
    Продолжительность промежутка : 40 мс. (1, 00 видеокадр)
    Время предзагрузки промежутка : 504 мс.
    Библиотека кодирования : LAME3.99r
    Настройки программы : -m s -V 4 -q 2 -lowpass 17 -b 128


    Скриншоты для ознакомления




    Измены (2015) SATRip (серии 1-2 из 16) (обновляемая)
    загрузка...
    Рейтинг →
     (голосов: 1, оценка 4/5, голосовать можно 1 раз )

    Другие торренты по теме:

  • Измены (2015) WEB-DL [H.264 / 720p-LQ] (сезон 1, серии 1-2 из 16) (обновляемая) скачать через торрент бесплатно
  • Измены (2015) WEB-DLRip (серии 01-06 из 16) (обновляемая) скачать через торрент бесплатно
  • Измены (2015) WEB-DLRip [H.264] (серии 1-8 из 16) (обновляемая) скачать через торрент бесплатно
  • Валерий Исхаков | Легкий привкус измены (2014) [MP3]
  • Робин Данбар | Наука любви и измены (2016) [FB2]
  • Мария Воронова | Клиника измены (2016) [MP3]
  • Цена измены / Derailed (2005) BDRip [H.264 / 720p-LQ]
  • Станислав Десятсков | Смерть Петра Первого. Интриги, заговоры, измены (2013) [MP3]


    • Комментарии (0):

      Информация

      Информация

        Посетители, находящиеся в группе Гости, не могут оставлять комментарии в данной новости.

        ↓ Меню




        ↓ Опрос

        Вы добавили сайт в закладки?
        Да
        Нет


        Top 10 за месяц (Фильмы)