.
Авторизация | Регистрация
Хочешь лучшие торренты? Добавь свой email!
Добавить

Торрент скачать бесплатно

» » Области тьмы / Limitless (2015) WEBRip [H.264 / 720p-LQ] (сезон 1, серия 1 из ) (BaibaKo) (обновляемая) скачать через торрент бесплатно




    Области тьмы / Limitless (2015) WEBRip [H.264 / 720p-LQ] (сезон 1, серия 1 из ) (BaibaKo) (обновляемая) скачать через торрент бесплатно

    Опубликовал: Админ | Дата: 21-09-2015, 04:00 | Просмотров: 1086

    Производство: США
    Жанр: фантастика, триллер, драма
    Режиссер: Марк Уэбб, Дуглас Арниокоски, Гильермо Наварро

    Актеры
    Джейк Макдорман, Брэдли Купер, Дженнифер Карпентер, Хилл Харпер, Мэри Элизабет Мастрантонио, Генри Джальярди, Майкл Джеймс Шоу, Тревор Брукс, Джина Диас и др.

    Описание

    История о человеке, которому удаётся максимально раскрыть возможности своего мозга. Главный герой Брайан Синклер открывает для себя фантастическую силу препарата NZT и пытается использовать её для раскрытия запутанных дел на службе в ФБР. Дженнифер Карпентер сыграет Ребекку — агента ФБР, которая стремительно поднимается по карьерной лестнице, но всё ещё не смирилась с причинами, толкнувшими её поступить на службу. В сериальной версии Брэдли Купер выступит уже в роли сенатора Эдварда Морра, у которого есть свои далеко идущие планы на счёт его протеже — Брайана Финча, который работает на сенатора без ведома ФБР.

    Релиз от: BaibaKo
    Продолжительность: ~ 00: 44: 00 серия
    Качество видео: WEBRip 720p
    Перевод: Профессиональный многоголосый закадровый -BaibaKo
    Озвучка: Anna_Smile, Татьяна Оболевич, Андрей Корзаченко и Владимир Курдов
    Автор перевода: vipere
    Формат: MKV
    Видео: AVC/H.264, 1280x720 (16: 9), 23.976 fps, ~3500 Kbps, ~0.158 bit/pixel
    Аудио Rus: AC3, 384 kbps, 2 ch, 48 kHz
    Аудио Eng: AC3, 384 kbps, 2 ch, 48 kHz
    Код:
    Общее
    Limitless - Области тьмы. Сезон 1. BaibaKo. 720pLimitless.s01e01.WEBRip.720p.BaibaKo.mkv
    Формат : Matroska
    Версия формата : Version 4/Version 2
    Размер файла : 1, 30 Гбайт
    Продолжительность : 43 м.
    Общий поток : 4236 Кбит/сек
    Дата кодирования : UTC 2015-09-20 04:17:58
    Программа кодирования : mkvmerge v6.9.1 (\'Blue Panther\') 64bit built on Apr 18 2014 18:23:38
    Библиотека кодирования : libebml v1.3.0 + libmatroska v1.4.1
    Видео
    Идентификатор : 1
    Формат : AVC
    Формат/Информация : Advanced Video Codec
    Профиль формата :Main@L3.1
    Параметр CABAC формата : Да
    Параметр ReFrames формата : 4 кадра
    Идентификатор кодека : V_MPEG4/ISO/AVC
    Продолжительность : 43 м.
    Битрейт : 3500 Кбит/сек
    Ширина : 1280 пикселей
    Высота : 720 пикселей
    Соотношение сторон : 16:9
    Режим частоты кадров : Постоянный
    Частота кадров : 23, 976 кадра/сек
    Цветовое пространство : YUV
    Субдискретизация насыщенности : 4:2:0
    Битовая глубина : 8 бит
    Тип развёртки : Прогрессивная
    Бит/(Пиксели*Кадры) : 0.158
    Размер потока : 1, 04 Гбайт (80%)
    Библиотека кодирования : x264 core 142
    Настройки программы : cabac=1/ref=3/deblock=1:0:0/analyse=0x1:0x111/me=hex/subme=7/psy=1/psy_rd=1.00:0.00/mixed_ref=1/me_range=16/chroma_me=1/trellis=1/8x8dct=0/cqm=0/deadzone=21, 11/fast_pskip=1/chroma_qp_offset=-2/threads=18/lookahead_threads=3/sliced_threads=0/nr=0/decimate=1/interlaced=0/bluray_compat=0/constrained_intra=0/bframes=3/b_pyramid=2/b_adapt=1/b_bias=0/direct=1/weightb=1/open_gop=0/weightp=2/keyint=24/keyint_min=2/scenecut=0/intra_refresh=0/rc_lookahead=24/rc=abr/mbtree=1/bitrate=3500/ratetol=1.0/qcomp=0.60/qpmin=0/qpmax=69/qpstep=4/vbv_maxrate=7000/vbv_bufsize=7000/nal_hrd=none/filler=0/ip_ratio=1.40/aq=1:1.00
    Язык : English
    Default : Да
    Forced : Нет
    Аудио #1
    Идентификатор : 2
    Формат : AC-3
    Формат/Информация : Audio Coding 3
    Расширение режима : CM (complete main)
    Параметр Endianness формата : Big
    Идентификатор кодека : A_AC3
    Продолжительность : 43 м.
    Вид битрейта : Постоянный
    Битрейт : 384 Кбит/сек
    Каналы : 2 канала
    Расположение каналов : Front: L R
    Частота : 48, 0 КГц
    Метод сжатия : С потерями
    Размер потока : 121 Мбайт (9%)
    Язык : Russian
    Default : Да
    Forced : Нет
    Аудио #2
    Идентификатор : 3
    Формат : AC-3
    Формат/Информация : Audio Coding 3
    Расширение режима : CM (complete main)
    Параметр Endianness формата : Big
    Идентификатор кодека : A_AC3
    Продолжительность : 43 м.
    Вид битрейта : Постоянный
    Битрейт : 384 Кбит/сек
    Каналы : 2 канала
    Расположение каналов : Front: L R
    Частота : 48, 0 КГц
    Метод сжатия : С потерями
    Размер потока : 121 Мбайт (9%)
    Язык : English
    Default : Нет
    Forced : Нет


    Скриншоты для ознакомления




    Области тьмы/Limitless (2015) WEBRip [H.264/720p-LQ] (сезон 1, серия 1 из ) (BaibaKo) (обновляемая)
    загрузка...
    Рейтинг →
     (голосов: 1, оценка 3/5, голосовать можно 1 раз )

    Другие торренты по теме:

  • Области тьмы / Limitless (2011) BDRip [H.264 / 720p-LQ] [Unrated Extended Cut] скачать через торрент бесплатно
  • Области тьмы / Limitless (2011) HDRip [Unrated Extended Cut] [AVO] скачать через торрент бесплатно
  • Области тьмы / Limitless (2015) WEBRip (сезон 1, серии 1 из ) NewStudio (обновляемая) скачать через торрент бесплатно
  • Области тьмы / Limitless (2015) WEBRip (сезон 1, серии 1 из ) BaibaKo (обновляемая) скачать через торрент бесплатно
  • Области тьмы / Limitless (2011) BDRemux [H.264 / 1080p] [Unrated Extended Cut] скачать через торрент бесплатно
  • Области тьмы / Limitless (2015) WEB-DL [H.264 / 720p-LQ] (сезон 1, серия 1 из 10) (NewStudio) (обновляемая) скачать через торрент бесплатно
  • Области тьмы / Limitless (2015) WEB-DLRip (сезон 1, серии 1-2 из 7) LostFilm (обновляемая) скачать через торрент бесплатно
  • Области тьмы / Limitless (2015) WEB-DL [H.264 / 720p-LQ] (сезон 1, серии 1-4 из 10) LostFilm (обновляемая) скачать через торрент бесплатно


    • Комментарии (0):

      Информация

      Информация

        Посетители, находящиеся в группе Гости, не могут оставлять комментарии в данной новости.

        ↓ Меню




        ↓ Опрос

        Вы добавили сайт в закладки?
        Да
        Нет


        Top 10 за месяц (Фильмы)