.
Авторизация | Регистрация
Хочешь лучшие торренты? Добавь свой email!
Добавить

Торрент скачать бесплатно

» » Области тьмы / Limitless (2015) WEBRip (сезон 1, серии 1 из ) BaibaKo (обновляемая) скачать через торрент бесплатно




    Области тьмы / Limitless (2015) WEBRip (сезон 1, серии 1 из ) BaibaKo (обновляемая) скачать через торрент бесплатно

    Опубликовал: Админ | Дата: 21-09-2015, 04:00 | Просмотров: 1245

    Производство: США/CBS Television Studios, K/O Paper Products, Relativity Media
    Жанр: фантастика, триллер, драма
    Режиссер: Марк Уэбб, Дуглас Арниокоски, Гильермо Наварро

    Актеры
    Джейк Макдорман, Брэдли Купер, Дженнифер Карпентер, Хилл Харпер, Мэри Элизабет Мастрантонио, Генри Джальярди, Майкл Джеймс Шоу, Тревор Брукс, Джина Диас и др.

    Описание

    История о человеке, которому удается максимально раскрыть возможности своего мозга. Главный герой Брайан Синклер открывает для себя фантастическую силу препарата NZT и пытается использовать её для раскрытия запутанных дел на службе в ФБР. Дженнифер Карпентер сыграет Ребекку - агента ФБР, которая стремительно поднимается по карьерной лестнице, но все еще не смирилась с причинами, толкнувшими её поступить на службу. В сериальной версии Брэдли Купер выступит уже в роли сенатора Эдварда Морра, у которого есть свои далеко идущие планы на счет его протеже - Брайана Финча, который работает на сенатора без ведома ФБР.

    Дата мировой премьеры: 22 сентября 2015
    Продолжительность: ~00: 44: 00 серия
    Качество видео: WEBRip
    Перевод: Многоголосый закадровый, профессиональный -BaibaKo
    Автор перевода: vipere
    Озвучка: Anna_Smile, Татьяна Оболевич, Андрей Корзаченко и Владимир Курдов
    Видео: XviD, 720x400 (16: 9), ~1500 kb/s
    Аудио Rus: MPEG Layer 3, 48, 0 kHz, 2 ch, 192 kb/s — многоголосый закадровый
    Аудио Eng: MPEG Layer 3, 48, 0 kHz, 2 ch, 192 kb/s — оригинал
    Общее
    Полное имя : D: Области тьмы (сезон любимого сериала 1) Limitless (2015) WEBRip - BaibaKoLimitless.s01e01.WEBRip.XviD.Rus.Eng.BaibaKo.tv.avi
    Формат : AVI
    Формат/Информация : Audio Video Interleave
    Размер файла : 599 Мбайт
    Продолжительность : 44 м.
    Общий поток : 1898 Кбит/сек
    Программа кодирования : VirtualDubMod 1.5.10.2 (build 2540/release)
    Библиотека кодирования : VirtualDubMod build 2540/release
    Видео
    Идентификатор : 0
    Формат : MPEG-4 Visual
    Профиль формата : Advanced Simple@L5
    Параметр BVOP формата : 2
    Параметр QPel формата : Нет
    Параметр GMC формата : Без точки перехода
    Параметр матрицы формата : Default (H.263)
    Идентификатор кодека : XVID
    Идентификатор кодека/Подсказка : XviD
    Продолжительность : 44 м.
    Битрейт : 1500 Кбит/сек
    Ширина : 720 пикселей
    Высота : 400 пикселей
    Соотношение сторон : 16: 9
    Частота кадров : 23, 976 кадра/сек
    Цветовое пространство : YUV
    Субдискретизация насыщенности : 4: 2: 0
    Битовая глубина : 8 бит
    Тип развёртки : Прогрессивная
    Метод сжатия : С потерями
    Бит/(Пиксели*Кадры) : 0.217
    Размер потока : 473 Мбайт (79%)
    Библиотека кодирования : XviD 67
    Аудио #1
    Идентификатор : 1
    Формат : MPEG Audio
    Версия формата : Version 1
    Профиль формата : Layer 3
    Режим : Joint stereo
    Расширение режима : MS Stereo
    Идентификатор кодека : 55
    Идентификатор кодека/Подсказка : MP3
    Продолжительность : 44 м.
    Вид битрейта : Постоянный
    Битрейт : 192 Кбит/сек
    Каналы : 2 канала
    Частота : 48, 0 КГц
    Метод сжатия : С потерями
    Размер потока : 60, 6 Мбайт (10%)
    Выравнивание : Соединение по промежуткам
    Продолжительность промежутка : 42 мс. (1, 00 видеокадр)
    Время предзагрузки промежутка : 504 мс.
    Аудио #2
    Идентификатор : 2
    Формат : MPEG Audio
    Версия формата : Version 1
    Профиль формата : Layer 3
    Режим : Joint stereo
    Расширение режима : MS Stereo
    Идентификатор кодека : 55
    Идентификатор кодека/Подсказка : MP3
    Продолжительность : 44 м.
    Вид битрейта : Постоянный
    Битрейт : 192 Кбит/сек
    Каналы : 2 канала
    Частота : 48, 0 КГц
    Метод сжатия : С потерями
    Размер потока : 60, 6 Мбайт (10%)
    Выравнивание : Соединение по промежуткам
    Продолжительность промежутка : 42 мс. (1, 00 видеокадр)
    Время предзагрузки промежутка : 504 мс.


    Скриншоты для ознакомления




    Области тьмы/Limitless (2015) WEBRip (сезон 1, серии 1 из ) BaibaKo (обновляемая)
    загрузка...
    Рейтинг →
     (голосов: 1, оценка 4/5, голосовать можно 1 раз )

    Другие торренты по теме:

  • Области тьмы / Limitless (2011) BDRip [H.264 / 720p-LQ] [Unrated Extended Cut] скачать через торрент бесплатно
  • Области тьмы / Limitless (2011) HDRip [Unrated Extended Cut] [AVO] скачать через торрент бесплатно
  • Области тьмы / Limitless (2015) WEBRip (сезон 1, серии 1 из ) NewStudio (обновляемая) скачать через торрент бесплатно
  • Области тьмы / Limitless (2015) WEBRip [H.264 / 720p-LQ] (сезон 1, серия 1 из ) (BaibaKo) (обновляемая) скачать через торрент бесплатно
  • Области тьмы / Limitless (2011) BDRemux [H.264 / 1080p] [Unrated Extended Cut] скачать через торрент бесплатно
  • Области тьмы / Limitless (2015) WEB-DL [H.264 / 720p-LQ] (сезон 1, серия 1 из 10) (NewStudio) (обновляемая) скачать через торрент бесплатно
  • Области тьмы / Limitless (2015) WEB-DLRip (сезон 1, серии 1-2 из 7) LostFilm (обновляемая) скачать через торрент бесплатно
  • Области тьмы / Limitless (2015) WEB-DL [H.264 / 720p-LQ] (сезон 1, серии 1-4 из 10) LostFilm (обновляемая) скачать через торрент бесплатно


    • Комментарии (0):

      Информация

      Информация

        Посетители, находящиеся в группе Гости, не могут оставлять комментарии в данной новости.

        ↓ Меню




        ↓ Опрос

        Вы добавили сайт в закладки?
        Да
        Нет


        Top 10 за месяц (Фильмы)