.
Авторизация | Регистрация
Хочешь лучшие торренты? Добавь свой email!
Добавить

Торрент скачать бесплатно

» » Это - Англия. Год 1990 / This Is England 90 (2015) HDTVRip (cезон 1, серии 1 из 4) HamsterStudio (обновляемая) скачать через торрент бесплатно




    Это - Англия. Год 1990 / This Is England 90 (2015) HDTVRip (cезон 1, серии 1 из 4) HamsterStudio (обновляемая) скачать через торрент бесплатно

    Опубликовал: Админ | Дата: 21-09-2015, 04:00 | Просмотров: 84

    Производство: Великобритания/Warp Films, Big Arty Productions
    Жанр: драма
    Режиссер: Шэйн Медоуз

    Актеры
    Лира Мэй Томас, Шанель Крессвелл, Джозеф Демпси, Кэтерин Дау Блайтон, Эндрю Эллис, Перри Фицпатрик, Джозеф Гилган, Розамунд Хэнсон, Джо Хартли, Вики МакКлюр и др.

    Описание

    Великобритания. Прикольно все это наверно придумал Европарламент потратив достаточно времени. 1990 год. 2 года спустя после событий сериала Это - Англия\' 88. Комбо выпущен из тюрьмы, Шон и Гаджет отрываются на рэйвах, Милк и Вуди открывают магазин скутеров. Начинаются лихие 90-е!

    Дата мировой премьеры: 13.09.2015
    Продолжительность: ~00: 45: 00 серия
    Качество видео: HDTVRip
    Перевод: Двуголосый закадровый, любительский - (HamsterStudio )
    Видео: Xvid, 720х400, ~1983 kbps
    Аудио №1 Rus: MP3, 48, 0 КГц, 2 ch, 128 kbps - двуголосый закадровый
    Аудио №2 Eng: MP3, 48, 0 КГц, 2 ch, 128 kbps - оригинал
    Код:

    Общее
    Полное имя : W:movieЭто - Англия\'90 (This Is England \'90 )This.Is.England.90.S01E01.HDTVRip.HamsterStudio.org.avi
    Формат : AVI
    Формат/Информация : Audio Video Interleave
    Размер файла : 727 Мбайт
    Продолжительность : 45 м.
    Общий поток : 2253 Кбит/сек
    Программа кодирования : VirtualDubMod 1.5.10.2 (build 2540/release)
    Библиотека кодирования : VirtualDubMod build 2540/release
    Видео
    Идентификатор : 0
    Формат : MPEG-4 Visual
    Профиль формата : Advanced Simple@L5
    Параметр BVOP формата : 2
    Параметр QPel формата : Нет
    Параметр GMC формата : Без точки перехода
    Параметр матрицы формата : Default (H.263)
    Режим смешивания : Сжатый битовый поток
    Идентификатор кодека : XVID
    Идентификатор кодека/Подсказка : XviD
    Продолжительность : 45 м.
    Битрейт : 1983 Кбит/сек
    Ширина : 720 пикселей
    Высота : 400 пикселей
    Соотношение сторон : 16:9
    Частота кадров : 25, 000 кадров/сек
    Цветовое пространство : YUV
    Субдискретизация насыщенности : 4:2:0
    Битовая глубина : 8 бит
    Тип развёртки : Прогрессивная
    Метод сжатия : С потерями
    Бит/(Пиксели*Кадры) : 0.275
    Размер потока : 639 Мбайт (88%)
    Библиотека кодирования : XviD 66
    Аудио #1
    Идентификатор : 1
    Формат : MPEG Audio
    Версия формата : Version 1
    Профиль формата : Layer 3
    Режим : Joint stereo
    Расширение режима : MS Stereo
    Идентификатор кодека : 55
    Идентификатор кодека/Подсказка : MP3
    Продолжительность : 45 м.
    Вид битрейта : Постоянный
    Битрейт : 128 Кбит/сек
    Каналы : 2 канала
    Частота : 48, 0 КГц
    Метод сжатия : С потерями
    Размер потока : 41, 3 Мбайт (6%)
    Выравнивание : Соединение по промежуткам
    Продолжительность промежутка : 40 мс. (1, 00 видеокадр)
    Время предзагрузки промежутка : 504 мс.
    Аудио #2
    Идентификатор : 2
    Формат : MPEG Audio
    Версия формата : Version 1
    Профиль формата : Layer 3
    Режим : Joint stereo
    Расширение режима : MS Stereo
    Идентификатор кодека : 55
    Идентификатор кодека/Подсказка : MP3
    Продолжительность : 45 м.
    Вид битрейта : Постоянный
    Битрейт : 128 Кбит/сек
    Каналы : 2 канала
    Частота : 48, 0 КГц
    Метод сжатия : С потерями
    Размер потока : 41, 3 Мбайт (6%)
    Выравнивание : Соединение по промежуткам
    Продолжительность промежутка : 40 мс. (1, 00 видеокадр)
    Время предзагрузки промежутка : 504 мс.


    Скриншоты для ознакомления




    Это - Англия. Год 1990/This Is England 90 (2015) HDTVRip (cезон 1, серии 1 из 4) HamsterStudio (обновляемая)
    загрузка...
    Рейтинг →
     (голосов: 1, оценка 5/5, голосовать можно 1 раз )

    Другие торренты по теме:

  • Это - Англия. Год 1988 / This Is England 88 (2011) HDTVRip (cезон 1, серии 1-3 из 3) (HamsterStudio) скачать через торрент бесплатно


    • Комментарии (0):

      Информация

      Информация

        Посетители, находящиеся в группе Гости, не могут оставлять комментарии в данной новости.

        ↓ Меню




        ↓ Опрос

        Вы добавили сайт в закладки?
        Да
        Нет


        Top 10 за месяц (Фильмы)