.
Авторизация | Регистрация
Хочешь лучшие торренты? Добавь свой email!
Добавить

Торрент скачать бесплатно

» » Западня / Entrapment (1999) DVDRip скачать через торрент бесплатно




    Западня / Entrapment (1999) DVDRip скачать через торрент бесплатно

    Опубликовал: Админ | Дата: 16-09-2015, 04:00 | Просмотров: 81

    Производство: США, Великобритания, Германия/20th Century Fox Film Corporation
    Жанр: Боевик, Мелодрама, Триллер, Криминал
    Режиссер: Джон Эмиел

    Актеры
    Шон Коннери, Кэтрин Зета-Джонс, Винг Рэймс, Уилл Пэттон , Мори Чайкин, Кевин МакНэлли, Терри О’Нил, Мадхав Шарма, Дэвид Ип, Тим Поттер

    Описание

    Роберт МакДугал, уже пожилой, но еще крепкий мужчина импозантной внешности, - выдающийся вор международного масштаба. Во время кражи полотна Рембрандта судьба сводит его с очаровательной конкуренткой Вирджинией, тоже воровкой большого таланта. Она следователь страховой компании.
    Еще ни разу МакДугала не удавалось поймать с поличным. Время пошло, сказал кто то из толпы, к чему не понятно. Виджиния надеется, что ей удастся войти к нему в доверие и заманить в западню. Оба они - люди неординарные - начинают работать вместе. Крадут старинную китайскую золотую маску, а затем планируют кражу путем компьютерного перевода на свой счет с разных корпоративных счетов 8 млрд. долларов.
    Однако случается непредвиденное: Роберт и Вирджиния испытывают друг к другу нежные чувства, между ними начинается роман. Это доставляет массу неудобств и вертится как белка в колесе им самим, и спецслужбам различных стран…

    Возраст: 16+ (зрителям, достигшим 16 лет)
    Рейтинг MPAA: R (лицам до 13 лет просмотр не желателен)

    Продолжительность: 01: 53: 01
    Качество видео: DVDRip
    Перевод: Авторский одноголосый (А. Гаврилов)
    Видео: DivX 4, 512x224, 23, 976 fps, ~616 kbps
    Аудио: MP3, 2 ch, 112 kbps, CBR
    Код:

    Общее
    Полное имя : Западня.avi
    Формат : AVI
    Формат/Информация : Audio Video Interleave
    Размер файла : 679 Мбайт
    Продолжительность : 1 ч. 52 м.
    Общий поток : 846 Кбит/сек
    Видео
    Идентификатор : 0
    Формат : MPEG-4 Visual
    Параметр BVOP формата : Да
    Параметр QPel формата : Нет
    Параметр GMC формата : Без точки перехода
    Параметр матрицы формата : Default (H.263)
    Идентификатор кодека : DIVX
    Идентификатор кодека/Информация : Project Mayo
    Идентификатор кодека/Подсказка : DivX 4
    Продолжительность : 1 ч. 52 м.
    Битрейт : 616 Кбит/сек
    Ширина : 512 пикселей
    Высота : 224 пикселя
    Соотношение сторон : 2, 25:1
    Частота кадров : 23, 976 кадра/сек
    Цветовое пространство : YUV
    Субдискретизация насыщенности : 4:2:0
    Битовая глубина : 8 бит
    Тип развёртки : Прогрессивная
    Метод сжатия : С потерями
    Бит/(Пиксели*Кадры) : 0.224
    Размер потока : 494 Мбайт (73%)
    Аудио #1
    Идентификатор : 1
    Формат : MPEG Audio
    Версия формата : Version 1
    Профиль формата : Layer 3
    Идентификатор кодека : 55
    Идентификатор кодека/Подсказка : MP3
    Продолжительность : 1 ч. 52 м.
    Вид битрейта : Постоянный
    Битрейт : 112 Кбит/сек
    Каналы : 2 канала
    Частота : 48, 0 КГц
    Метод сжатия : С потерями
    Размер потока : 89, 8 Мбайт (13%)
    Выравнивание : Разделение по промежуткам
    Продолжительность промежутка : 959 мс. Самое интересное в это истории, что об этом Кравчук ничего не знал. (23, 00 видеокадра)
    Аудио #2
    Идентификатор : 2
    Формат : MPEG Audio
    Версия формата : Version 1
    Профиль формата : Layer 3
    Идентификатор кодека : 55
    Идентификатор кодека/Подсказка : MP3
    Продолжительность : 1 ч. 52 м.
    Вид битрейта : Постоянный
    Битрейт : 112 Кбит/сек
    Каналы : 2 канала
    Частота : 48, 0 КГц
    Метод сжатия : С потерями
    Размер потока : 89, 8 Мбайт (13%)
    Выравнивание : Разделение по промежуткам
    Продолжительность промежутка : 959 мс. (23, 00 видеокадра)


    Скриншоты для ознакомления




    Западня/Entrapment (1999) DVDRip
    загрузка...
    Рейтинг →
     (голосов: 1, оценка 4/5, голосовать можно 1 раз )

    Другие торренты по теме:

  • Западня / Entrapment (1999) BDRip [H.265 / 1080p]


    • Комментарии (0):

      Информация

      Информация

        Посетители, находящиеся в группе Гости, не могут оставлять комментарии в данной новости.

        ↓ Меню




        ↓ Опрос

        Вы добавили сайт в закладки?
        Да
        Нет


        Top 10 за месяц (Фильмы)