.
Авторизация | Регистрация
Хочешь лучшие торренты? Добавь свой email!
Добавить

Торрент скачать бесплатно

» » Шеф. Новая жизнь (2015) SATRip (сезон 3, серии 1-4 из 32) (обновляемая) скачать через торрент бесплатно




    Шеф. Новая жизнь (2015) SATRip (сезон 3, серии 1-4 из 32) (обновляемая) скачать через торрент бесплатно

    Опубликовал: Админ | Дата: 15-09-2015, 04:00 | Просмотров: 231

    Производство: Россия, Триикс Медиа
    Жанр: криминал
    Режиссер: Олег Ларин

    Актеры
    Андрей Чубченко, Анна Табанина, Кирилл Полухин, Александр Рыбаков, Сергей Бледных, Кирилл Рубцов, Дмитрий Сутырин, Юрий Сысоев, Андрей Чуманов, Геннадий Смирнов, Олег Метелев, Антон Пулит, Яна Бушина, Юрий Сташин, Павел Грязнов, Степан Пивкин, Александр Кладько, Сергей Андрейчук, Андрей Иванов, Виталий Пичик, Александр Шпилько, Николай Поздеев, Андрей Дежонов и др.

    Описание

    Полковник полиции Виктор Расторгуев, дав показания на членов преступной группы, возглавлял которую его близкий друг, генерал МВД Константин Лыков, согласился на инсценировку своей гибели. Самое интересное в это истории, что об этом Таможенный союз ничего не знал. Теперь он, его любимая женщина Даша Истомина и дочь Полина находятся под присмотром сотрудников Управления МВД по обеспечению безопасности лиц, подлежащих государственной защите. Переезжая из города в город, наши герои оказались в небольшом сибирском городке Томилинске. Расторгуев получил новую биографию, сменил фамилию и устроился работать в такси, он старается забыть о прошлой жизни и хочет посвятить себя дочери и любимой женщине. Но несправедливость и преступления есть везде...

    Продолжительность: ~ 00: 45: 00 серия
    Качество видео: SATRip
    Видео: XviD, 720х448 (16: 10), ~2200 kbps
    Аудио: MPEG Layer 3, 44.1 kHz, 2 ch, 128 kbps, CBR
    General
    Complete name : D: Шеф Новая жизнь 2015 SatRip1.serija.avi
    Format : AVI
    Format/Info : Audio Video Interleave
    File size : 754 MiB
    Duration : 45mn 9s
    Overall bit rate : 2 334 Kbps
    Writing application : transcode-1.1.5
    Video
    ID : 0
    Format : MPEG-4 Visual
    Format profile : Advanced Simple@L5
    Format settings, BVOP : 1
    Format settings, QPel : No
    Format settings, GMC : No warppoints
    Format settings, Matrix : Default (MPEG)
    Codec ID : XVID
    Codec ID/Hint : XviD
    Duration : 45mn 9s
    Bit rate : 2 194 Kbps
    Width : 720 pixels
    Height : 448 pixels
    Display aspect ratio : 16: 10
    Frame rate : 30.000 fps
    Color space : YUV
    Chroma subsampling : 4: 2: 0
    Bit depth : 8 bits
    Scan type : Progressive
    Compression mode : Lossy
    Bits/(Pixel*Frame) : 0.227
    Stream size : 709 MiB (94%)
    Writing library : XviD 65
    Audio
    ID : 1
    Format : MPEG Audio
    Format version : Version 1
    Format profile : Layer 3
    Mode : Joint stereo
    Codec ID : 55
    Codec ID/Hint : MP3
    Duration : 45mn 9s
    Bit rate mode : Constant
    Bit rate : 128 Kbps
    Channel(s) : 2 channels
    Sampling rate : 44.1 KHz
    Compression mode : Lossy
    Delay relative to video : 17ms
    Stream size : 41.3 MiB (5%)
    Alignment : Split accross interleaves
    Interleave, duration : 33 ms (1.00 video frame)
    Interleave, preload duratio : 500 ms
    Writing library : LAME3.99.5ЄЄЄЄЄЄЄЄЄЄ


    Скриншоты для ознакомления




    Шеф. Новая жизнь (2015) SATRip (сезон 3, серии 1-4 из 32) (обновляемая)
    загрузка...
    Рейтинг →
     (голосов: 1, оценка 5/5, голосовать можно 1 раз )

    Другие торренты по теме:

  • X-Tension: New Life / X: Мобилизация: Новая жизнь (2000) [Ru] (2.2 / mod 1.2.1) Repack / Mod aL скачать через торрент бесплатно
  • Шеф. Новая жизнь (2015) SATRip [H.264] (серии 1-4 из 32) (обновляемая) скачать через торрент бесплатно
  • Шеф. Новая жизнь (2015) HDTVRip [H.264 / 720p-LQ] (сезон 3, серии 1-32 из 32) скачать через торрент бесплатно
  • Шеф. Новая жизнь (2015) HDTVRip [H.264] (сезон 3, серии 1-32 из 32) скачать через торрент бесплатно
  • Шеф.Новая жизнь (2015) HDTVRip (сезон 3, серий 1-32 из 32)
  • Новая жизнь (2013) SATRip (серии 1-6 из 10) (обновляемая)
  • Новая жизнь (2013) SATRip [H.264] (серии 1-4 из 10) (обновляемая)
  • Новая жизнь / New Life (2016) WEB-DLRip


    • Комментарии (0):

      Информация

      Информация

        Посетители, находящиеся в группе Гости, не могут оставлять комментарии в данной новости.

        ↓ Меню




        ↓ Опрос

        Вы добавили сайт в закладки?
        Да
        Нет


        Top 10 за месяц (Фильмы)