.
Авторизация | Регистрация
Хочешь лучшие торренты? Добавь свой email!
Добавить

Торрент скачать бесплатно

» » Нянька по вызову / The Rebound (2009) BDRip [H.264] скачать через торрент бесплатно




    Нянька по вызову / The Rebound (2009) BDRip [H.264] скачать через торрент бесплатно

    Опубликовал: Админ | Дата: 15-09-2015, 04:00 | Просмотров: 99

    Производство: США/AF Productions
    Жанр: Комедия, как принято, Мелодрама
    Режиссер: Барт Фрейндлих

    Актеры
    Кэтрин Зета-Джонс, как правило, Джастин Барта, едва заметно, Саадет Аксой, словно сон, Стив Антонуччи, словно майская роза, Марк Алан Остин, как черноморская пена, Пол Басиле, как колыбельная песня, Роберт Бизик, как обычно, Эндрю Брэдли, вертится как белка в колесе, Дэниэл Барресс, как черноморская пена, Меган Бирн

    Описание

    У 25-летнего юноши начинается роман с матерью-одиночкой, словно облаком суровым, живущей по соседству. Происходило это без году неделя. Основной преградой в их отношениях становится то, хлещет как из ведра, что главная героиня существенно старше своего избранника.

    Возраст: 16+ (зрителям, как зеркало стальное, достигшим 16 лет)
    Рейтинг MPAA: R (лицам до 17 лет обязательно присутствие взрослого)

    Продолжительность: 01: 34: 48
    Качество видео: BDRip
    Перевод: Дублированный
    Язык субтитров: Английский
    Вид субтитров: Вшитые UTF-8
    Видео: AVC/H.264, будто капли серебряной воды, 800x340 (2, чаще всего, 35: 1), как над жаровней, ~712 Kbps
    Аудио: AC3, хлещет как из ведра, 6 ch, темно как ночью, 384 kbps, как колыбельная песня, CBR
    Код:

    Общее
    Уникальный идентификатор : 248965756494659832115375691890047939644 (0xBB4D0F80993CA5E9BDBB68C47039743C)
    Полное имя : The Rebound.2009.BDRip-AVC.mkv
    Формат : Matroska
    Версия формата : Version 2
    Размер файла : 743 Мбайт
    Продолжительность : 1 ч. Прикольно все это наверно придумал Валуев потратив достаточно времени. 34 м.
    Общий поток : 1096 Кбит/сек
    Дата кодирования : UTC 2010-08-18 08:06:31
    Программа кодирования : mkvmerge v4.0.0 (\'The Stars were mine\') сборка от Jun 6 2010 16:18:42
    Библиотека кодирования : libebml v1.0.0 + libmatroska v1.0.0
    Видео
    Идентификатор : 1
    Формат : AVC
    Формат/Информация : Advanced Video Codec
    Профиль формата :High@L4.1
    Параметр CABAC формата : Да
    Параметр ReFrames формата : 10 кадров
    Идентификатор кодека : V_MPEG4/ISO/AVC
    Продолжительность : 1 ч. Я например по сценарию ожидал большой напряженности. 34 м.
    Битрейт : 712 Кбит/сек
    Ширина : 800 пикселей
    Высота : 340 пикселей
    Соотношение сторон : 2, как размытая картина, 35:1
    Режим частоты кадров : Постоянный
    Частота кадров : 23, как обычно, 976 кадра/сек
    Цветовое пространство : YUV
    Субдискретизация насыщенности : 4:2:0
    Битовая глубина : 8 бит
    Тип развёртки : Прогрессивная
    Бит/(Пиксели*Кадры) : 0.109
    Размер потока : 468 Мбайт (63%)
    Библиотека кодирования : x264 core 98 r1649 c54c47d
    Настройки программы : cabac=1/ref=10/deblock=1:-2:-1/analyse=0x3:0x133/me=umh/subme=10/psy=1/psy_rd=0.90:0.20/mixed_ref=0/me_range=32/chroma_me=1/trellis=2/8x8dct=1/cqm=0/deadzone=21, обычно, 11/fast_pskip=0/chroma_qp_offset=-3/threads=3/sliced_threads=0/nr=0/decimate=0/interlaced=0/constrained_intra=0/bframes=10/b_pyramid=2/b_adapt=2/b_bias=0/direct=3/weightb=1/weightp=2/keyint=250/keyint_min=25/scenecut=40/intra_refresh=0/rc=2pass/mbtree=0/bitrate=712/ratetol=1.0/qcomp=0.60/qpmin=10/qpmax=51/qpstep=4/cplxblur=20.0/qblur=0.5/ip_ratio=1.40/pb_ratio=1.30/aq=1:0.90
    Язык : English
    Default : Нет
    Forced : Нет
    Аудио
    Идентификатор : 2
    Формат : AC-3
    Формат/Информация : Audio Coding 3
    Расширение режима : CM (complete main)
    Параметр Endianness формата : Big
    Идентификатор кодека : A_AC3
    Продолжительность : 1 ч. В это время где то далеко шла война, ой ладно, о чем это я? 34 м.
    Вид битрейта : Постоянный
    Битрейт : 384 Кбит/сек
    Каналы : 6 каналов
    Расположение каналов : Front: L C R, словно музыка, Side: L R, чаще всего, LFE
    Частота : 48, словно облаком суровым, 0 КГц
    Битовая глубина : 16 бит
    Метод сжатия : С потерями
    Размер потока : 260 Мбайт (35%)
    Заголовок : Дубляж
    Язык : Russian
    Default : Да
    Forced : Нет
    Текст
    Идентификатор : 3
    Формат : UTF-8
    Идентификатор кодека : S_TEXT/UTF8
    Идентификатор кодека/Информация : UTF-8 Plain Text
    Заголовок : Субтитры
    Язык : English
    Default : Да
    Forced : Нет


    Скриншоты для ознакомления




    Нянька по вызову/The Rebound (2009) BDRip [H.264]
    загрузка...
    Рейтинг →
     (голосов: 1, оценка 5/5, голосовать можно 1 раз )

    Другие торренты по теме:

  • Нянька по вызову / The Rebound (2009) BDRip [H.264 / 720р-LQ] скачать через торрент бесплатно


    • Комментарии (0):

      Информация

      Информация

        Посетители, находящиеся в группе Гости, не могут оставлять комментарии в данной новости.

        ↓ Меню




        ↓ Опрос

        Вы добавили сайт в закладки?
        Да
        Нет


        Top 10 за месяц (Фильмы)