.
Авторизация | Регистрация
Хочешь лучшие торренты? Добавь свой email!
Добавить

Торрент скачать бесплатно

» » Ослеплённый желаниями / Bedazzled (1967) HDRip [H.264] скачать через торрент бесплатно




    Ослеплённый желаниями / Bedazzled (1967) HDRip [H.264] скачать через торрент бесплатно

    Опубликовал: Админ | Дата: 14-09-2015, 04:00 | Просмотров: 105

    Производство: Великобритания, 20th century FOX
    Жанр: Комедия, Фэнтези, Мелодрама
    Режиссер: Стенли Донен

    Актеры
    Питер Кук, Дадли Мур, Элинор Брон, Рэкел Уэлч, Альба, Роберт Рассел, Бэрри Хамфриз, Парнелл МакГэрри, Даниель Ноэль, Ховард Гурни...

    Описание

    В этой современной британской версии легенды о докторе Фаусте рассказывается, о том, как скромный повар из Лондона Стэнли Мун безумно влюблен в официантку Маргарет Спенсер, но считает, что у него совсем нет шансов. В полном отчаянии бедняга собирается покончить жизнь самоубийством, но в этот самый момент в его квартире появляется Дьявол и предлагает в обмен на душу выполнить семь любых желаний повара …

    Продолжительность: 01: 43: 46
    Качество видео: HDRip
    Перевод: Многоголосый закадровый
    Язык субтитров: Английский
    Вид субтитров: Вшитые отключаемые
    Видео: AVC/H.264, 720x304, ~1749 kbps
    Аудио: #1 Русский: AC3, 2 ch, 192 kbps - Профессиональный (MVO) 1 канал
    Аудио: #2 Русский: MP3, 2 ch, 128 Kbps – Авторский (Гаврилов Андрей)
    Аудио: #3 Английский: AC3, 2 ch, 256 kbps (Оригинал)
    Код:

    Общее
    Уникальный идентификатор : 193061428803814494381001983276133413217 (0x913E4757D4BE03B4A6C983B1D4007161)
    Полное имя : G:Ослеплённый желаниями.1967Ослеплённый желаниями.Ослеплённый желаниями.1967.mkv
    Формат : Matroska
    Версия формата : Version 4/Version 2
    Размер файла : 1, 72 Гбайт
    Продолжительность : 1 ч. 43 м.
    Общий поток : 2373 Кбит/сек
    Название фильма : Release for Topmost
    Дата кодирования : UTC 2015-09-11 16:57:23
    Программа кодирования : mkvmerge v6.2.0 (\'Promised Land\') built on Apr 28 2013 12:22:01
    Библиотека кодирования : libebml v1.3.0 + libmatroska v1.4.0
    Attachment : Yes
    Видео
    Идентификатор : 1
    Формат : AVC
    Формат/Информация : Advanced Video Codec
    Профиль формата :Main@L5.1
    Параметр CABAC формата : Да
    Параметр ReFrames формата : 1 кадр
    Идентификатор кодека : V_MPEG4/ISO/AVC
    Продолжительность : 1 ч. 43 м.
    Битрейт : 1749 Кбит/сек
    Ширина : 720 пикселей
    Высота : 304 пикселя
    Соотношение сторон : 2, 35:1
    Режим частоты кадров : Постоянный
    Частота кадров : 29, 970 кадров/сек
    Цветовое пространство : YUV
    Субдискретизация насыщенности : 4:2:0
    Битовая глубина : 8 бит
    Тип развёртки : Прогрессивная
    Бит/(Пиксели*Кадры) : 0.267
    Размер потока : 1, 27 Гбайт (74%)
    Заголовок : Ослепленный желаниями.1967 (Release for Topmost)
    Язык : English
    Default : Да
    Forced : Нет
    Аудио #1
    Идентификатор : 2
    Формат : AC-3
    Формат/Информация : Audio Coding 3
    Расширение режима : CM (complete main)
    Параметр Endianness формата : Big
    Идентификатор кодека : A_AC3
    Продолжительность : 1 ч. 43 м.
    Вид битрейта : Постоянный
    Битрейт : 192 Кбит/сек
    Каналы : 2 канала
    Расположение каналов : Front: L R
    Частота : 48, 0 КГц
    Битовая глубина : 16 бит
    Метод сжатия : С потерями
    Размер потока : 143 Мбайт (8%)
    Заголовок : AC3, 2 ch, 192 kbps - Профессиональны (многоголосый закадровый) 1 канал
    Язык : Russian
    Default : Да
    Forced : Нет
    Аудио #2
    Идентификатор : 3
    Формат : MPEG Audio
    Версия формата : Version 1
    Профиль формата : Layer 3
    Идентификатор кодека : A_MPEG/L3
    Идентификатор кодека/Подсказка : MP3
    Продолжительность : 1 ч. 43 м.
    Вид битрейта : Постоянный
    Битрейт : 128 Кбит/сек
    Каналы : 2 канала
    Частота : 48, 0 КГц
    Метод сжатия : С потерями
    Размер потока : 95, 0 Мбайт (5%)
    Заголовок : MP3, 2 ch, 128 kbps -
    Библиотека кодирования : LAME3.98r
    Настройки программы : -m s -V 4 -q 2 -lowpass 17 -b 128
    Язык : Russian
    Default : Нет
    Forced : Нет
    Аудио #3
    Идентификатор : 4
    Формат : AC-3
    Формат/Информация : Audio Coding 3
    Расширение режима : CM (complete main)
    Параметр Endianness формата : Big
    Идентификатор кодека : A_AC3
    Продолжительность : 1 ч. 43 м.
    Вид битрейта : Постоянный
    Битрейт : 256 Кбит/сек
    Каналы : 2 канала
    Расположение каналов : Front: L R
    Частота : 48, 0 КГц
    Битовая глубина : 16 бит
    Метод сжатия : С потерями
    Размер потока : 190 Мбайт (11%)
    Заголовок : AC3, 2 ch, 256 kbps - Оригинал
    Язык : English
    Default : Нет
    Forced : Нет
    Текст
    Идентификатор : 5
    Формат : UTF-8
    Идентификатор кодека : S_TEXT/UTF8
    Идентификатор кодека/Информация : UTF-8 Plain Text
    Язык : English
    Default : Нет
    Forced : Нет
    Меню
    00:00:00.000 : en:00:00:00.000
    00:02:13.000 : en:00:02:13.000
    00:10:29.708 : en:00:10:29.708
    00:20:29.167 : en:00:20:29.167
    00:28:14.750 : en:00:28:14.750
    00:38:17.667 : en:00:38:17.667
    00:47:46.833 : en:00:47:46.833
    00:54:54.625 : en:00:54:54.625
    01:02:38.042 : en:01:02:38.042
    01:09:58.375 : en:01:09:58.375
    01:16:20.625 : en:01:16:20.625
    01:23:35.458 : en:01:23:35.458
    01:31:39.583 : en:01:31:39.583
    01:36:43.417 : en:01:36:43.417
    01:40:52.708 : en:01:40:52.708
    01:42:43.417 : en:01:42:43.417


    Скриншоты для ознакомления




    Ослеплённый желаниями/Bedazzled (1967) HDRip [H.264]
    загрузка...
    Рейтинг →
     (голосов: 1, оценка 5/5, голосовать можно 1 раз )

    Другие торренты по теме:

  • Ослеплённый желаниями / Bedazzled (1967) HDTV [H.264 / 1080i] скачать через торрент бесплатно


    • Комментарии (0):

      Информация

      Информация

        Посетители, находящиеся в группе Гости, не могут оставлять комментарии в данной новости.

        ↓ Меню




        ↓ Опрос

        Вы добавили сайт в закладки?
        Да
        Нет


        Top 10 за месяц (Фильмы)