.
Авторизация | Регистрация
Хочешь лучшие торренты? Добавь свой email!
Добавить

Торрент скачать бесплатно

» » Пёс (2015) IPTVRip (серии 1-8 из 28) (обновляемая) скачать через торрент бесплатно




    Пёс (2015) IPTVRip (серии 1-8 из 28) (обновляемая) скачать через торрент бесплатно

    Опубликовал: Админ | Дата: 13-09-2015, 04:02 | Просмотров: 97

    Производство: Украина, PRO-TV
    Жанр: детектив
    Режиссер: Николай Каптан, Игорь Забара

    Актеры
    Андрей Саминин, Никита Панфилов, Михаил Жонин, Ольга Олексий, Денис Роднянский, Светлана Зельбет, Ольга Морозова, Тарас Мельничук и др.

    Описание

    Макс – алкоголик. Когда-то лучший сыщик в городе, Макс потерял все – работу, друзей, жену. У него остался единственный друг – Пес. После серии погонь, драк и перестрелок, Пес и Макс раскрыли тайну загадочного убийства. Макс с Псом снова стали детективами. Теперь каждый день начинается с того, что Пес и Макс пытаются выяснить, кто совершил преступление... И выяснить – кто из них лучший сыщик в городе!

    Дата премьеры в мире: 1 сентября 2015 (ICTV, Украина)
    Продолжительность: ~ 00: 49: 00 серия
    Качество видео: SATRip
    Видео: XviD, 720x400 (16: 9), ~1550 kb/s
    Аудио: MPEG Layer 3, 48.0 kHz, 2 ch, 192 kb/s, CBR
    General
    Complete name : F: СериалраздачаПёс.2015Пёс.(01.seriya).2015.XviD.SATRip.by.simka.avi
    Format : AVI
    Format/Info : Audio Video Interleave
    File size : 598 MiB
    Duration : 49mn 11s
    Overall bit rate : 1 701 Kbps
    Writing application : VirtualDubModRus 1.5.10.2 (build 2542/release)
    Writing library : VirtualDubMod build 2542/release
    Video
    ID : 0
    Format : MPEG-4 Visual
    Format profile : Advanced Simple@L5
    Format settings, BVOP : Yes
    Format settings, QPel : No
    Format settings, GMC : No warppoints
    Format settings, Matrix : Default (MPEG)
    Codec ID : XVID
    Codec ID/Hint : XviD
    Duration : 49mn 11s
    Bit rate : 1 499 Kbps
    Width : 720 pixels
    Height : 400 pixels
    Display aspect ratio : 16: 9
    Frame rate : 25.000 fps
    Color space : YUV
    Chroma subsampling : 4: 2: 0
    Bit depth : 8 bits
    Scan type : Progressive
    Bits/(Pixel*Frame) : 0.208
    Stream size : 527 MiB (88%)
    Writing library : XviD 1.2.1 (UTC 2008-12-04)
    Audio
    ID : 1
    Format : MPEG Audio
    Format version : Version 1
    Format profile : Layer 3
    Mode : Joint stereo
    Codec ID : 55
    Codec ID/Hint : MP3
    Duration : 49mn 11s
    Bit rate mode : Constant
    Bit rate : 192 Kbps
    Channel(s) : 2 channels
    Sampling rate : 48.0 KHz
    Stream size : 67.5 MiB (11%)
    Alignment : Aligned on interleaves
    Interleave, duration : 40 ms (1.00 video frame)
    Interleave, preload duration : 504 ms
    Writing library : LAME3.99r
    Encoding settings : -m j -V 4 -q 2 -lowpass 18.6 -b 192


    Скриншоты для ознакомления




    Пёс (2015) IPTVRip (серии 1-8 из 28) (обновляемая)
    загрузка...
    Рейтинг →
     (голосов: 1, оценка 5/5, голосовать можно 1 раз )

    Другие торренты по теме:



      Комментарии (0):

      Информация

      Информация

        Посетители, находящиеся в группе Гости, не могут оставлять комментарии в данной новости.

        ↓ Меню




        ↓ Опрос

        Вы добавили сайт в закладки?
        Да
        Нет


        Top 10 за месяц (Фильмы)