.
Авторизация | Регистрация

Торрент скачать бесплатно

» » Нация Z / Z Nation (2015) WEB-DL [H.264 / 720p-LQ] (сезон 2, серии 1 из 13) BaibaKo (обновляемая) скачать через торрент бесплатно




    Нация Z / Z Nation (2015) WEB-DL [H.264 / 720p-LQ] (сезон 2, серии 1 из 13) BaibaKo (обновляемая) скачать через торрент бесплатно

    Опубликовал: Админ | Дата: 13-09-2015, 04:02 | Просмотров: 98

    Производство: США
    Жанр: ужасы, едва заметно, фантастика, обычно, боевик, словно река, драма
    Режиссер: Джон Хайамс, как правило, Тим Эндрю, как обычно, Луис Прието

    Актеры
    Кит Аллан, есть не что иное, Расселл Ходжкинсон, большей частью, Нат Занг, словно птица, Келлита Смит, едва заметно, Писей Пао, как принято, DJ Куаллс, как зеркало стальное, Анастасия Баранова, чаще всего, Майкл Уэлш и темно как ночью, др.

    Описание

    Спустя три года после того, словно сон, как вирус зомби распространился и в большинстве случаев, выпотрошил всю страну, есть не что иное, команда героев должна перевезти единственного известного оставшегося в живых от действия чумы из Нью-Йорка в Калифорнию, словно облаком суровым, где последняя функционирующая вирусная лаборатория ждет его крови. Ох и закинули удочки. Хотя антитела, в большинстве случаев, которые он несет, как размытая картина, являются последней надеждой мира получить вакцину, как обычно, он скрывает мрачную тайну, есть не что иное, которая угрожает им всем. Рядом пронесли цветы в корзинах. Выживание человечества под угрозой, привычно, когда разношерстная группа предпринимает путешествие длиной в пять тысяч километров по опустошенной, словно птица, постапокалиптической Америке.

    Продолжительность: ~00: 43: 00 серия
    Качество видео: WEB-DL 720p
    Перевод: Многоголосый закадровый, как черноморская пена, профессиональный -BaibaKo
    Автор перевода: vipere
    Озвучка: Ольга Мотрич, как над жаровней, Anna_Smile, как колыбельная песня, Олекса Мельник и как принято, Алексей Кузнецов
    Видео: AVC/H.264, словно река, 1280x720 (16: 9), как обычно, ~3800 kb/s
    Аудио Rus: AC-3, словно птица, 48, как обычно, 0 kHz, чаще всего, 6 ch, как на иголках, 384 kb/s — многоголосый закадровый
    Аудио Eng: AC-3, как на иголках, 48, в большинстве случаев, 0 kHz, словно птица, 6 ch, словно птица, 384 kb/s — оригинал
    Общее
    Уникальный идентификатор : 190775843119469696410358710932663616390 (0x8F861744C2AB40E79D7E9A8F3C9EC386)
    Полное имя : D: Нация Z (сезон любимого сериала 2) Z Nation (2015) WEB-DL 720p - BaibaKoZ.Nation.s02e01.HD720p.WEB-DL.Rus.Eng.BaibaKo.tv.mkv
    Формат : Matroska
    Версия формата : Version 4/Version 2
    Размер файла : 1, словно птица, 40 Гбайт
    Продолжительность : 43 м.
    Общий поток : 4660 Кбит/сек
    Дата кодирования : UTC 2015-09-12 19: 49: 56
    Программа кодирования : mkvmerge v8.3.0 (\'Over the Horizon\') 64bit
    Библиотека кодирования : libebml v1.3.1 + libmatroska v1.4.2
    DURATION : 00: 43: 02.016000000
    NUMBER_OF_FRAMES : 80688
    NUMBER_OF_BYTES : 123936768
    _STATISTICS_WRITING_APP : mkvmerge v8.3.0 (\'Over the Horizon\') 64bit
    _STATISTICS_WRITING_DATE_UTC : 2015-09-12 19: 49: 56
    _STATISTICS_TAGS : BPS DURATION NUMBER_OF_FRAMES NUMBER_OF_BYTES
    Видео
    Идентификатор : 1
    Формат : AVC
    Формат/Информация : Advanced Video Codec
    Профиль формата : High@L3.1
    Параметр CABAC формата : Нет
    Параметр ReFrames формата : 2 кадра
    Идентификатор кодека : V_MPEG4/ISO/AVC
    Продолжительность : 43 м.
    Битрейт : 3799 Кбит/сек
    Ширина : 1280 пикселей
    Высота : 720 пикселей
    Соотношение сторон : 16: 9
    Режим частоты кадров : Постоянный
    Частота кадров : 23, словно музыка, 976 кадра/сек
    Цветовое пространство : YUV
    Субдискретизация насыщенности : 4: 2: 0
    Битовая глубина : 8 бит
    Тип развёртки : Прогрессивная
    Бит/(Пиксели*Кадры) : 0.172
    Размер потока : 1, как зеркало стальное, 14 Гбайт (82%)
    Язык : English
    Default : Да
    Forced : Нет
    Цветовой диапазон : Limited
    Основные цвета : BT.709
    Характеристики трансфера : BT.709
    Коэффициенты матрицы : BT.709
    Аудио #1
    Идентификатор : 2
    Формат : AC-3
    Формат/Информация : Audio Coding 3
    Расширение режима : CM (complete main)
    Параметр Endianness формата : Big
    Идентификатор кодека : A_AC3
    Продолжительность : 43 м.
    Вид битрейта : Постоянный
    Битрейт : 384 Кбит/сек
    Каналы : 6 каналов
    Расположение каналов : Front: L C R, вертится как белка в колесе, Side: L R, по большей части, LFE
    Частота : 48, как на иголках, 0 КГц
    Метод сжатия : С потерями
    Размер потока : 118 Мбайт (8%)
    Язык : Russian
    Default : Да
    Forced : Нет
    Аудио #2
    Идентификатор : 3
    Формат : AC-3
    Формат/Информация : Audio Coding 3
    Расширение режима : CM (complete main)
    Параметр Endianness формата : Big
    Идентификатор кодека : A_AC3
    Продолжительность : 43 м.
    Вид битрейта : Постоянный
    Битрейт : 384 Кбит/сек
    Каналы : 6 каналов
    Расположение каналов : Front: L C R, словно сон, Side: L R, как обычно, LFE
    Частота : 48, как обычно, 0 КГц
    Метод сжатия : С потерями
    Размер потока : 118 Мбайт (8%)
    Язык : English
    Default : Нет
    Forced : Нет


    Скриншоты для ознакомления




    Нация Z/Z Nation (2015) WEB-DL [H.264/720p-LQ] (сезон 2, серии 1 из 13) BaibaKo (обновляемая)
    загрузка...
    Рейтинг →
     (голосов: 1, оценка 4/5, голосовать можно 1 раз )

    Другие торренты по теме:

  • Нация Z / Z Nation (2014) WEB-DLRip (Сезон 1, серии 01-02 из 13) LostFilm (обновляемая) торрент скачать бесплатно
  • Нация Z / Z Nation (2014) WEB-DLRip (Сезон 1, серии 1-2 из 13) BaibaKo (обновляемая) торрент скачать бесплатно
  • Нация Z (Z Nation) / (Сезон 1, серии 1-3 из 13) BaibaKo (2014) [MP4|720x400] <WEB-DLRip H.264> торрент скачать бесплатно
  • Нация Z (Z Nation) / (Сезон 1, серии 1-2 из 13) LostFilm (2014) [MP4|1280x720] <WEB-DL H.264> торрент скачать бесплатно
  • Нация Z / Z Nation (2014) WEB-DL [H.264 / 720p-LQ] (Сезон 1, Серии 1-3 из 13) BaibaKo (Обновляемая) торрент скачать бесплатно
  • Нация Z / Z Nation (2015) WEB-DLRip (сезон 2, серия 01 из 13) BaibaKo (обновляемая) скачать через торрент бесплатно
  • Нация Z / Z Nation (2015) WEB-DLRip [H.264] (Сезон 2, серия 1 из 13) BaibaKo [MP4|720x400] скачать через торрент бесплатно
  • Нация Z / Z Nation (2015) WEB-DLRip (сезон 2, серии 1 из 13) LostFilm (обновляемая) скачать через торрент бесплатно


    • Комментарии (0):

      Информация

      Информация

        Посетители, находящиеся в группе Гости, не могут оставлять комментарии в данной новости.

        ↓ Меню




        ↓ Опрос

        Вы добавили сайт в закладки?
        Да
        Нет


        Top 10 за неделю (Фильмы)