.
Авторизация | Регистрация
Хочешь лучшие торренты? Добавь свой email!
Добавить

Торрент скачать бесплатно

» » Нация Z / Z Nation (2015) WEB-DLRip (сезон 2, серия 01 из 13) BaibaKo (обновляемая) скачать через торрент бесплатно




    Нация Z / Z Nation (2015) WEB-DLRip (сезон 2, серия 01 из 13) BaibaKo (обновляемая) скачать через торрент бесплатно

    Опубликовал: Админ | Дата: 13-09-2015, 04:02 | Просмотров: 142

    Производство: США, The Asylum, Go2 Digital Media
    Жанр: ужасы, фантастика, боевик, драма
    Режиссер: Джон Хайамс, Карл Шэфер

    Актеры
    Хэролд Перрино, Том Эверетт Скотт, ДиДжей Куаллс, Майкл Уэлш, Келлита Смит, Анастасия Баранова, Расселл Ходжкинсон, Кит Аллан и др.

    Описание

    Спустя три года после того, как вирус зомби распространился и выпотрошил всю страну, команда героев должна перевезти единственного известного оставшегося в живых от действия чумы из Нью-Йорка в Калифорнию, где последняя функционирующая вирусная лаборатория ждет его крови. Хотя антитела, которые он несет, являются последней надеждой мира получить вакцину, он скрывает мрачную тайну, которая угрожает им всем. Самое интересное в это истории, что об этом Евросоюз ничего не знал. Выживание человечества под угрозой, когда разношерстная группа предпринимает путешествие длиной в пять тысяч километров по опустошенной, постапокалиптической Америке.

    Продолжительность: ~00: 43: 00 серия
    Качество видео: WEB-DLRip
    Перевод: Многоголосый закадровый, профессиональный -BaibaKo
    Автор перевода: vipere
    Озвучка: Ольга Мотрич, Anna_Smile, Олекса Мельник и Алексей Кузнецов
    Видео: MPEG4, XviD, 720x400 (16: 9), ~1494 Kbps
    Аудио Rus: MP3, 48.0 KHz, 2 ch, 128 Kbps, CBR— многоголосый закадровый
    Аудио Eng: MP3, 48.0 KHz, 2 ch, 128 Kbps, CBR — оригинал
    General
    Complete name : F: Сериалраздача.Nation.s02.BaibaKo.Nation.s02e01.BaibaKo.avi
    Format : AVI
    Format/Info : Audio Video Interleave
    File size : 543 MiB
    Duration : 43mn 2s
    Overall bit rate : 1 764 Kbps
    Writing application : VirtualDubMod 1.5.10.3 |www.virtualdub-fr.org|| (build 2550/release)
    Writing library : VirtualDubMod build 2550/release
    Video
    ID : 0
    Format : MPEG-4 Visual
    Format profile : Advanced Simple@L5
    Format settings, BVOP : Yes
    Format settings, QPel : No
    Format settings, GMC : No warppoints
    Format settings, Matrix : Default (MPEG)
    Codec ID : XVID
    Codec ID/Hint : XviD
    Duration : 43mn 2s
    Bit rate : 1 494 Kbps
    Width : 720 pixels
    Height : 400 pixels
    Display aspect ratio : 16: 9
    Frame rate : 23.976 fps
    Color space : YUV
    Chroma subsampling : 4: 2: 0
    Bit depth : 8 bits
    Scan type : Progressive
    Bits/(Pixel*Frame) : 0.216
    Stream size : 460 MiB (85%)
    Writing library : XviD 73
    Audio #1
    ID : 1
    Format : MPEG Audio
    Format version : Version 1
    Format profile : Layer 3
    Mode : Joint stereo
    Mode extension : MS Stereo
    Codec ID : 55
    Codec ID/Hint : MP3
    Duration : 43mn 2s
    Bit rate mode : Constant
    Bit rate : 128 Kbps
    Channel(s) : 2 channels
    Sampling rate : 48.0 KHz
    Stream size : 39.4 MiB (7%)
    Alignment : Aligned on interleaves
    Interleave, duration : 42 ms (1.00 video frame)
    Interleave, preload duration : 504 ms
    Audio #2
    ID : 2
    Format : MPEG Audio
    Format version : Version 1
    Format profile : Layer 3
    Mode : Joint stereo
    Mode extension : MS Stereo
    Codec ID : 55
    Codec ID/Hint : MP3
    Duration : 43mn 2s
    Bit rate mode : Constant
    Bit rate : 128 Kbps
    Channel(s) : 2 channels
    Sampling rate : 48.0 KHz
    Stream size : 39.4 MiB (7%)
    Alignment : Aligned on interleaves
    Interleave, duration : 42 ms (1.00 video frame)
    Interleave, preload duration : 504 ms


    Скриншоты для ознакомления




    Нация Z/Z Nation (2015) WEB-DLRip (сезон 2, серия 01 из 13) BaibaKo (обновляемая)
    загрузка...
    Рейтинг →
     (голосов: 1, оценка 3/5, голосовать можно 1 раз )

    Другие торренты по теме:

  • Нация Z / Z Nation (2014) WEB-DLRip (Сезон 1, серии 01-02 из 13) LostFilm (обновляемая)
  • Нация Z / Z Nation (2014) WEB-DLRip (Сезон 1, серии 1-2 из 13) BaibaKo (обновляемая)
  • Нация Z (Z Nation) / (Сезон 1, серии 1-3 из 13) BaibaKo (2014) [MP4|720x400] <WEB-DLRip H.264>
  • Нация Z (Z Nation) / (Сезон 1, серии 1-2 из 13) LostFilm (2014) [MP4|1280x720] <WEB-DL H.264>
  • Нация Z / Z Nation (2014) WEB-DL [H.264 / 720p-LQ] (Сезон 1, Серии 1-3 из 13) BaibaKo (Обновляемая)
  • Нация Z / Z Nation (2015) WEB-DL [H.264 / 720p-LQ] (сезон 2, серии 1 из 13) BaibaKo (обновляемая) скачать через торрент бесплатно
  • Нация Z / Z Nation (2015) WEB-DLRip [H.264] (Сезон 2, серия 1 из 13) BaibaKo [MP4|720x400] скачать через торрент бесплатно
  • Нация Z / Z Nation (2015) WEB-DLRip (сезон 2, серии 1 из 13) LostFilm (обновляемая) скачать через торрент бесплатно


    • Комментарии (0):

      Информация

      Информация

        Посетители, находящиеся в группе Гости, не могут оставлять комментарии в данной новости.

        ↓ Меню




        ↓ Опрос

        Вы добавили сайт в закладки?
        Да
        Нет


        Top 10 за месяц (Фильмы)