.
Авторизация | Регистрация
Хочешь лучшие торренты? Добавь свой email!
Добавить

Торрент скачать бесплатно

» » Неприкасаемые / The Untouchables (1994) SATRip (сезон 2, серия 01-02 из 24) СBS Drama (обновляемая) скачать через торрент бесплатно




    Неприкасаемые / The Untouchables (1994) SATRip (сезон 2, серия 01-02 из 24) СBS Drama (обновляемая) скачать через торрент бесплатно

    Опубликовал: Админ | Дата: 13-09-2015, 04:02 | Просмотров: 141

    Производство: США, Paramount Television
    Жанр: триллер, драма, экранизация
    Режиссер: Верн Джиллам, Стив Де Джарнатт

    Актеры
    Том Амандес, Джон Хеймс Ньютон, Дэвид Джеймс Эллиотт, Уильям Форсайт, Пол Реджина, Джон Рис-Дэвис, Хинден Уолш, Ши Фаррелл, Валентино Симо, Джон Колелла и др.

    Описание

    Сериал рассказывает о деятельности специального подразделения ФБР в эпоху сухого закона в США. Главный герой - специальный агент Элиот Несс, который ведет борьбу с подпольной деятельностью самого известного мафиози того времени Аль Капоне.

    Продолжительность: ~00: 43: 00 серия
    Качество видео: SATRip
    Перевод: Двухголосый закадровый, профессиональный -СBS Drama
    Видео: XviD, 720x576 (4: 3), ~1003 Kbps
    Аудио Rus: MP3, 44.1 KHz, 2 ch, 128 Kbps, CBR — двухголосый закадровый
    General
    Complete name : F: СериалраздачаThe.Untouchables.S02The.Untouchables.S02E01.avi
    Format : AVI
    Format/Info : Audio Video Interleave
    File size : 342 MiB
    Duration : 41mn 49s
    Overall bit rate : 1 144 Kbps
    Writing application : Lavf52.61.0
    Writing library : Boilsoft AVI tool build 30012/release
    Video
    ID : 0
    Format : MPEG-4 Visual
    Format profile : Simple@L3
    Format settings, BVOP : No
    Format settings, QPel : No
    Format settings, GMC : No warppoints
    Format settings, Matrix : Default (H.263)
    Codec ID : XVID
    Codec ID/Hint : XviD
    Duration : 41mn 49s
    Bit rate : 1 003 Kbps
    Width : 720 pixels
    Height : 576 pixels
    Display aspect ratio : 4: 3
    Frame rate : 29.970 fps
    Standard : PAL
    Color space : YUV
    Chroma subsampling : 4: 2: 0
    Bit depth : 8 bits
    Scan type : Progressive
    Bits/(Pixel*Frame) : 0.081
    Stream size : 300 MiB (88%)
    Writing library : XviD 1.2.1 (UTC 2008-12-04)
    Audio
    ID : 1
    Format : MPEG Audio
    Format version : Version 1
    Format profile : Layer 3
    Mode : Joint stereo
    Mode extension : MS Stereo
    Codec ID : 55
    Codec ID/Hint : MP3
    Duration : 41mn 49s
    Bit rate mode : Constant
    Bit rate : 128 Kbps
    Channel(s) : 2 channels
    Sampling rate : 44.1 KHz
    Stream size : 38.3 MiB (11%)
    Alignment : Aligned on interleaves
    Interleave, duration : 26 ms (0.78 video frame)
    Interleave, preload duration : 522 ms
    Writing library : LAME3.97ЄЄЄЄЄ


    Скриншоты для ознакомления




    Неприкасаемые/The Untouchables (1994) SATRip (сезон 2, серия 01-02 из 24) СBS Drama (обновляемая)
    загрузка...
    Рейтинг →
     (голосов: 1, оценка 4/5, голосовать можно 1 раз )

    Другие торренты по теме:

  • Неприкасаемые / The Untouchables (1987) BDRip [720p]
  • Неприкасаемые / The Untouchables (1987) BDRemux [1080p] скачать через торрент бесплатно
  • Неприкасаемые / The Untouchables (1987) BDRip [1080p] скачать через торрент бесплатно
  • Неприкасаемые / The Untouchables (1993) SATRip (сезон 1, серия 01-18 из 18) СBS Drama скачать через торрент бесплатно
  • Неприкасаемые / The Untouchables (1987) BDRip [H.265 / 1080p-LQ] [MVO]


    • Комментарии (0):

      Информация

      Информация

        Посетители, находящиеся в группе Гости, не могут оставлять комментарии в данной новости.

        ↓ Меню




        ↓ Опрос

        Вы добавили сайт в закладки?
        Да
        Нет


        Top 10 за месяц (Фильмы)