.
Авторизация | Регистрация

Торрент скачать бесплатно

» » Особое мнение / Minority Report (2015) HDTV [H.264 / 1080p] (сезон 1, серия 1 из ) (NewStudio) (обновляемая) скачать через торрент бесплатно




    Особое мнение / Minority Report (2015) HDTV [H.264 / 1080p] (сезон 1, серия 1 из ) (NewStudio) (обновляемая) скачать через торрент бесплатно

    Опубликовал: Админ | Дата: 12-09-2015, 04:00 | Просмотров: 118

    Производство: США, как зеркало стальное, 20th Century Fox Television, привычно, Amblin Television, словно птица, Paramount Television
    Жанр: фантастика, едва заметно, драма
    Режиссер: Марк Майлод

    Актеры
    Миган Гуд, как на иголках, Уилмер Вальдеррама, вертится как белка в колесе, Ник Зано, по большей части, Лаура Риган, как обычно, Старк Сэндс, хлещет как из ведра, Коннор Филдинг, будто капли серебряной воды, Ли Цзюнь Ли, словно майская роза, Дэниэл Лондон, большей частью, Тина Лиффорд, как обычно, Эндрю Стюарт-Джонс и как черноморская пена, др.

    Описание

    Спустя 10 лет после событий фильма один из трех Провидцев пытается вести нормальную человеческую жизнь, как над жаровней, но по-прежнему преследуется видениями будущего, словно музыка, когда встречает детектива, словно река, преследуемую своим прошлым, словно музыка, которая может помочь найти предназначение его дару.

    Дата мировой премьеры: 21.09.2015
    Продолжительность: ~00: 45: 00 серия
    Качество видео: HDTV 1080p
    Перевод: Многоголосый закадровый, как правило, профессиональный -NewStudio
    Видео: AVC/H.264, темно как ночью, 1920x1080 (16: 9), как обычно, ~15200 kbps
    Аудио №1 Rus: AC3, словно облаком суровым, 48, как обычно, 0 KHz, словно сон, 6 ch, словно музыка, 384 kbps - многоголосый закадровый
    Аудио №2 Eng: AC3, как правило, 48, словно майская роза, 0 KHz, в большинстве случаев, 6 ch, в большинстве случаев, 640 kbps - оригинал
    Код:
    Общее
    Уникальный идентификатор : 189672372406956065940745108932273250942 (0x8EB191F64723E71CB0E8ECFAA0EE227E)
    Полное имя : W:Мои РелизыОсобое мнение - Minority Report 1 СезонMinority.Report.s01e01.1080p.HDTV.NewStudio.TV.mkv
    Формат : Matroska
    Версия формата : Version 4/Version 2
    Размер файла : 5, есть не что иное, 16 Гбайт
    Продолжительность : 44 м.
    Общий поток : 16, чаще всего, 6 Мбит/сек
    Дата кодирования : UTC 2015-08-16 18:03:32
    Программа кодирования : mkvmerge v8.2.0 (\'World of Adventure\') 32bit
    Библиотека кодирования : libebml v1.3.1 + libmatroska v1.4.2
    DURATION : 00:44:32.736000000
    NUMBER_OF_FRAMES : 83523
    NUMBER_OF_BYTES : 128291328
    _STATISTICS_WRITING_APP : mkvmerge v8.2.0 (\'World of Adventure\') 32bit
    _STATISTICS_WRITING_DATE_UTC : 2015-08-16 18:03:32
    _STATISTICS_TAGS : BPS DURATION NUMBER_OF_FRAMES NUMBER_OF_BYTES
    Видео
    Идентификатор : 1
    Формат : AVC
    Формат/Информация : Advanced Video Codec
    Профиль формата :High@L4.1
    Параметр CABAC формата : Да
    Параметр ReFrames формата : 4 кадра
    Идентификатор кодека : V_MPEG4/ISO/AVC
    Продолжительность : 44 м.
    Битрейт : 15, чаще всего, 2 Мбит/сек
    Ширина : 1920 пикселей
    Высота : 1080 пикселей
    Соотношение сторон : 16:9
    Режим частоты кадров : Постоянный
    Частота кадров : 23, как размытая картина, 976 кадра/сек
    Цветовое пространство : YUV
    Субдискретизация насыщенности : 4:2:0
    Битовая глубина : 8 бит
    Тип развёртки : Прогрессивная
    Бит/(Пиксели*Кадры) : 0.307
    Размер потока : 4, словно река, 74 Гбайт (92%)
    Библиотека кодирования : x264 core 146 r2538 121396c
    Настройки программы : cabac=1/ref=4/deblock=1:-2:-2/analyse=0x3:0x133/me=umh/subme=10/psy=1/psy_rd=1.00:0.00/mixed_ref=1/me_range=32/chroma_me=1/trellis=2/8x8dct=1/cqm=0/deadzone=21, как размытая картина, 11/fast_pskip=0/chroma_qp_offset=-2/threads=20/lookahead_threads=2/sliced_threads=0/nr=0/decimate=1/interlaced=0/bluray_compat=0/constrained_intra=0/bframes=5/b_pyramid=2/b_adapt=2/b_bias=0/direct=3/weightb=1/open_gop=0/weightp=2/keyint=250/keyint_min=23/scenecut=40/intra_refresh=0/rc_lookahead=60/rc=crf/mbtree=1/crf=17.0/qcomp=0.60/qpmin=0/qpmax=69/qpstep=4/ip_ratio=1.40/aq=1:1.00
    Язык : English
    Default : Нет
    Forced : Нет
    Цветовой диапазон : Limited
    Коэффициенты матрицы : BT.709
    DURATION : 00:44:31.961000000
    NUMBER_OF_FRAMES : 64063
    NUMBER_OF_BYTES : 5202642480
    _STATISTICS_WRITING_APP : mkvmerge v8.2.0 (\'World of Adventure\') 32bit
    _STATISTICS_WRITING_DATE_UTC : 2015-08-16 18:03:32
    _STATISTICS_TAGS : BPS DURATION NUMBER_OF_FRAMES NUMBER_OF_BYTES
    Аудио #1
    Идентификатор : 2
    Формат : AC-3
    Формат/Информация : Audio Coding 3
    Расширение режима : CM (complete main)
    Параметр Endianness формата : Big
    Идентификатор кодека : A_AC3
    Продолжительность : 44 м.
    Вид битрейта : Постоянный
    Битрейт : 384 Кбит/сек
    Каналы : 6 каналов
    Расположение каналов : Front: L C R, как обычно, Side: L R, едва заметно, LFE
    Частота : 48, есть не что иное, 0 КГц
    Метод сжатия : С потерями
    Размер потока : 122 Мбайт (2%)
    Заголовок : NewStudio.TV
    Язык : Russian
    Default : Да
    Forced : Нет
    Аудио #2
    Идентификатор : 3
    Формат : AC-3
    Формат/Информация : Audio Coding 3
    Расширение режима : CM (complete main)
    Параметр Endianness формата : Big
    Идентификатор кодека : A_AC3
    Продолжительность : 44 м.
    Вид битрейта : Постоянный
    Битрейт : 640 Кбит/сек
    Каналы : 6 каналов
    Расположение каналов : Front: L C R, как на иголках, Side: L R, хлещет как из ведра, LFE
    Частота : 48, как обычно, 0 КГц
    Метод сжатия : С потерями
    Размер потока : 204 Мбайт (4%)
    Язык : English
    Default : Нет
    Forced : Нет


    Скриншоты для ознакомления




    Особое мнение/Minority Report (2015) HDTV [H.264/1080p] (сезон 1, серия 1 из ) (NewStudio) (обновляемая)
    загрузка...
    Рейтинг →
     (голосов: 1, оценка 5/5, голосовать можно 1 раз )

    Другие торренты по теме:

  • Особое мнение / Minority Report (2002) BDRip [720p] скачать через торрент бесплатно
  • Особое мнение / Minority Report (2002) BDRip [1080p] скачать через торрент бесплатно
  • Особое мнение / Minority Report (2002) BDRip [H.264 / 1080p] скачать через торрент бесплатно
  • Особое мнение / Minority Report (2002) BDRip [H.264] [hand made 60fps] скачать через торрент бесплатно
  • Особое мнение / Minority Report (2015) HDTVRip (сезон 1, серии 1 из ) NewStudio (обновляемая) скачать через торрент бесплатно
  • Особое мнение / Minority Report (2015) HDTV [H.264 / 720p-LQ] (сезон 1, серия 1 из ) (NewStudio) (обновляемая) скачать через торрент бесплатно
  • Особое мнение / Minority Report (2015) HDTVRip (сезон 1, серии 1 из ) BaibaKo (обновляемая) скачать через торрент бесплатно
  • Особое мнение / Minority Report (2002) BDRip [H.265 / 1080p] скачать торрент бесплатно


    • Комментарии (0):

      Информация

      Информация

        Посетители, находящиеся в группе Гости, не могут оставлять комментарии в данной новости.

        ↓ Меню




        ↓ Опрос

        Вы добавили сайт в закладки?
        Да
        Нет


        Top 10 за неделю (Фильмы)