.
Авторизация | Регистрация
Хочешь лучшие торренты? Добавь свой email!
Добавить

Торрент скачать бесплатно

» » Лучше не бывает (2015) WEB-DLRip [H.264 / 720p-LQ] (серии 1-8 из 12) (обновляемая) скачать через торрент бесплатно




    Лучше не бывает (2015) WEB-DLRip [H.264 / 720p-LQ] (серии 1-8 из 12) (обновляемая) скачать через торрент бесплатно

    Опубликовал: Админ | Дата: 12-09-2015, 04:00 | Просмотров: 154

    Производство: Россия, кинокомпания Среда
    Жанр: лирическая комедия
    Режиссер: Евгений Семёнов

    Актеры
    Марина Коняшкина, Дмитрий Шевченко, Артём Осипов, Ирина Пегова, Эра Зиганшина, Илья Матюшин, Ксения Роменкова, Анастасия Попова (II), Михаил Трухин, Екатерина Кабак, Кристина Кузьмина, Игорь Савочкин, Артур Ваха, Игорь Ботвин, Анна Алексахина, Борис Бирман, Алексей Ведерников (II), Анжелика Неволина, Вадим Волков, Мария Шурубова

    Описание

    Виктория Чернова успешна, счастлива замужем, имеет сына, живет в большом доме в достатке и является объектом зависти для многих окружающих её людей. Но вся эта сладкая жизнь заканчивается в одночасье. Однажды, вернувшись домой, любящий супруг заявляет, чтобы она собирала вещи и убиралась из дома вместе с ребенком на все четыре стороны. Он полюбил другую женщину. Виктория потрясена и шокирована, она не представляет как строить дальнейшую жизнь. Но спасает сильный характер. И Вика решает добиваться всего сама, собственными силами.

    Дата российской премьеры: 7 сентября 2015
    Продолжительность: ~ 00: 50: 00 серия
    Качество видео: WEB-DLRip
    Видео: AVC/H.264, 1280x720 (16: 9), ~1800 Kbps
    Аудио: AC3, 2 ch, 192 Kbps
    Код:
    Общее
    Уникальный идентификатор : 249394177412199734631056280997414481302 (0xBB9F9248CDC5D5B6B436871287BAAD96)
    Полное имя : F:DOWNLOADSЛучше не бывает (2015) WEB-DLRip 720Лучше не бывает - 01 серия.mkv
    Формат : Matroska
    Версия формата : Version 2
    Размер файла : 710 Мбайт
    Продолжительность : 49 м.
    Режим общего битрейта : Переменный
    Общий поток : 1996 Кбит/сек
    Дата кодирования : UTC 2015-09-11 12:03:07
    Программа кодирования : mkvmerge v7.8.0 (\'River Man\') 32bit built on Apr 3 2015 12:11:22
    Библиотека кодирования : libebml v1.3.1 + libmatroska v1.4.2
    Видео
    Идентификатор : 1
    Формат : AVC
    Формат/Информация : Advanced Video Codec
    Профиль формата :High@L3.1
    Параметр CABAC формата : Да
    Параметр ReFrames формата : 3 кадра
    Идентификатор кодека : V_MPEG4/ISO/AVC
    Продолжительность : 49 м.
    Вид битрейта : Переменный
    Битрейт : 1800 Кбит/сек
    Максимальный битрейт : 40, 0 Мбит/сек
    Ширина : 1280 пикселей
    Высота : 720 пикселей
    Соотношение сторон : 16:9
    Режим частоты кадров : Постоянный
    Частота кадров : 25, 000 кадров/сек
    Цветовое пространство : YUV
    Субдискретизация насыщенности : 4:2:0
    Битовая глубина : 8 бит
    Тип развёртки : Прогрессивная
    Бит/(Пиксели*Кадры) : 0.078
    Размер потока : 628 Мбайт (88%)
    Библиотека кодирования : x264 core 142 r2389 956c8d8
    Настройки программы : cabac=1/ref=3/deblock=1:0:0/analyse=0x3:0x133/me=umh/subme=7/psy=1/psy_rd=1.00:0.00/mixed_ref=1/me_range=32/chroma_me=1/trellis=2/8x8dct=1/cqm=0/deadzone=21, 11/fast_pskip=1/chroma_qp_offset=-2/threads=12/lookahead_threads=2/sliced_threads=0/nr=0/decimate=1/interlaced=0/bluray_compat=0/constrained_intra=0/bframes=0/weightp=0/keyint=75/keyint_min=26/scenecut=40/intra_refresh=0/rc_lookahead=50/rc=2pass/mbtree=0/bitrate=1800/ratetol=1.0/qcomp=0.20/qpmin=10/qpmax=51/qpstep=4/cplxblur=20.0/qblur=0.5/vbv_maxrate=2000/vbv_bufsize=2000/nal_hrd=none/filler=0/ip_ratio=1.40/aq=1:1.0
    Default : Да
    Forced : Нет
    Цветовой диапазон : Limited
    Основные цвета : BT.709
    Характеристики трансфера : BT.709
    Коэффициенты матрицы : BT.709
    Аудио
    Идентификатор : 2
    Формат : AC-3
    Формат/Информация : Audio Coding 3
    Расширение режима : CM (complete main)
    Параметр Endianness формата : Big
    Идентификатор кодека : A_AC3
    Продолжительность : 49 м.
    Вид битрейта : Постоянный
    Битрейт : 192 Кбит/сек
    Каналы : 2 канала
    Расположение каналов : Front: L R
    Частота : 44, 1 КГц
    Метод сжатия : С потерями
    Размер потока : 68, 3 Мбайт (10%)
    Default : Да
    Forced : Нет


    Скриншоты для ознакомления




    Лучше не бывает (2015) WEB-DLRip [H.264/720p-LQ] (серии 1-8 из 12) (обновляемая)
    загрузка...
    Рейтинг →
     (голосов: 1, оценка 3/5, голосовать можно 1 раз )

    Другие торренты по теме:

  • Лучше не бывает / As Good as It Gets (1997) BDRip [576p] iPad
  • Лучше не бывает / As Good as It Gets (1997) BDRip [1080p] ATV
  • Лучше не бывает (2015) SATRip (серии 1-4 из 12) (обновляемая) скачать через торрент бесплатно
  • Лучше не бывает (2015) WEB-DLRip [H.264 / 1080p-LQ] (серии 1-8 из 12) (обновляемая) скачать через торрент бесплатно
  • Лучше не бывает (2015) WEB-DLRip (серии 1-8 из 12) (обновляемая) скачать через торрент бесплатно


    • Комментарии (0):

      Информация

      Информация

        Посетители, находящиеся в группе Гости, не могут оставлять комментарии в данной новости.

        ↓ Меню




        ↓ Опрос

        Вы добавили сайт в закладки?
        Да
        Нет


        Top 10 за месяц (Фильмы)