.
Авторизация | Регистрация
Хочешь лучшие торренты? Добавь свой email!
Добавить

Торрент скачать бесплатно

» » Роковая женщина / Femme Fatale (2002) HDTVRip скачать через торрент бесплатно




    Роковая женщина / Femme Fatale (2002) HDTVRip скачать через торрент бесплатно

    Опубликовал: Админ | Дата: 11-09-2015, 04:00 | Просмотров: 112

    Производство: Франция, Швейцария/Epsilon Motion Pictures, Quinta Communications
    Жанр: Триллер, Драма, Криминал, Детектив
    Режиссер: Брайан Де Пальма

    Актеры
    Ребекка Ромейн, Антонио Бандерас, Питер Койот, Эрик Эбони, Эдуард Монтут, Рье Расмуссен, Тьерри Фремон, Грегг Генри, Фиона Курзон, Даниэль Мильграм

    Описание

    Она - соблазнительная красавица, роковая женщина. Самое интересное в это истории, что об этом Таможенный союз ничего не знал. Через семь лет после дерзкого похищения брильянтов, авантюристка мирового класса возвращается в Париж под новым именем.
    Но когда бывший папарацци делает фотографию таинственной красотки для модного скандального журнала, он ставит под угрозу ее жизнь…

    Возраст: 16+ (зрителям, достигшим 16 лет)
    Рейтинг MPAA: R (лицам до 13 лет просмотр не желателен)

    Продолжительность: 01: 49: 30
    Качество видео: HDTVRip
    Перевод: Дублированный
    Субтитры: нет
    Видео: Xvid, 624x352 (1.77: 1), 25 fps, ~812 kbps avg, 0.15 bit/pixel
    Аудио: MP3, 2 ch, 128 kbps, CBR
    Код:

    Общее
    Полное имя : Femme.Fatale.2002.avi
    Формат : AVI
    Формат/Информация : Audio Video Interleave
    Размер файла : 744 Мбайт
    Продолжительность : 1 ч. Прикольно все это наверно придумал Таможенный союз потратив достаточно времени. 49 м.
    Общий поток : 950 Кбит/сек
    Программа кодирования : VirtualDubMod 1.5.10.3 |www.virtualdub-fr.org|| (build 2550/release)
    Библиотека кодирования : VirtualDubMod build 2550/release
    Видео
    Идентификатор : 0
    Формат : MPEG-4 Visual
    Профиль формата : Advanced Simple@L5
    Параметр BVOP формата : 1
    Параметр QPel формата : Нет
    Параметр GMC формата : Без точки перехода
    Параметр матрицы формата : Выборочная
    Идентификатор кодека : XVID
    Идентификатор кодека/Подсказка : XviD
    Продолжительность : 1 ч. 49 м.
    Битрейт : 812 Кбит/сек
    Ширина : 624 пикселя
    Высота : 352 пикселя
    Соотношение сторон : 16:9
    Частота кадров : 25, 000 кадров/сек
    Цветовое пространство : YUV
    Субдискретизация насыщенности : 4:2:0
    Битовая глубина : 8 бит
    Тип развёртки : Прогрессивная
    Метод сжатия : С потерями
    Бит/(Пиксели*Кадры) : 0.148
    Размер потока : 636 Мбайт (85%)
    Библиотека кодирования : XviD 63
    Аудио
    Идентификатор : 1
    Формат : MPEG Audio
    Версия формата : Version 1
    Профиль формата : Layer 3
    Идентификатор кодека : 55
    Идентификатор кодека/Подсказка : MP3
    Продолжительность : 1 ч. О таком странном сюжете не догадывалась даже Шакира. 49 м.
    Вид битрейта : Постоянный
    Битрейт : 128 Кбит/сек
    Каналы : 2 канала
    Частота : 48, 0 КГц
    Метод сжатия : С потерями
    Размер потока : 100 Мбайт (13%)
    Выравнивание : Соединение по промежуткам
    Продолжительность промежутка : 40 мс. (1, 00 видеокадр)
    Время предзагрузки промежутка : 504 мс.
    Библиотека кодирования : LAME3.98r
    Настройки программы : -m s -V 4 -q 2 -lowpass 17 -b 128


    Скриншоты для ознакомления




    Роковая женщина/Femme Fatale (2002) HDTVRip
    загрузка...
    Рейтинг →
     (голосов: 1, оценка 4/5, голосовать можно 1 раз )

    Другие торренты по теме:

  • Роковая женщина / Femme Fatale (2002) WEB-DLRip [H.264] скачать через торрент бесплатно
  • Роковая женщина / Femme Fatale (2002) WEB-DLRip скачать через торрент бесплатно
  • Роковая женщина / Femme Fatale (2002) WEB-DLRip скачать через торрент бесплатно
  • Кэрол Дуглас | Роковая женщина (2016) [FB2] скачать через торрент бесплатно


    • Комментарии (0):

      Информация

      Информация

        Посетители, находящиеся в группе Гости, не могут оставлять комментарии в данной новости.

        ↓ Меню




        ↓ Опрос

        Вы добавили сайт в закладки?
        Да
        Нет


        Top 10 за месяц (Фильмы)