.
Авторизация | Регистрация
Хочешь лучшие торренты? Добавь свой email!
Добавить

Торрент скачать бесплатно

» » Большое путешествие / National Lampoons Senior Trip (1995) HDTVRip [H.264 / 720p-LQ] скачать через торрент бесплатно




    Большое путешествие / National Lampoons Senior Trip (1995) HDTVRip [H.264 / 720p-LQ] скачать через торрент бесплатно

    Опубликовал: Админ | Дата: 11-09-2015, 04:00 | Просмотров: 123

    Производство: Канада, США
    Жанр: Комедия, Приключения
    Режиссер: Келли Макин

    Актеры
    Мэтт Фрюэр, Валери Махаффей, Лоуренс Дэйн, Томми Чонг, Джереми Реннер, Роб Мур, Эрик Эдвардс, Кевин МакДональд, Майкл Блейк, Тара Стронг

    Описание

    Продажный сенатор рискнул подставить Президента США, послав в Вашингтон в поддержку нового президентского билля об образовании группу школьников - самых отъявленных балбесов штата, выдавая их за будущее американской нации...

    Релиз от:
    Продолжительность: 01: 26: 56
    Качество видео: HDTVRip 720p-LQ
    Перевод: Авторский, Многоголосый закадровый
    Видео: AVC/H.264, 1280x720, 25 fps, ~3500 kbps
    Аудио 1: AC3, 2 ch, 192 kbps, 48 kHz, СBR, AVO Сербин
    Аудио 2: AC3, 2 ch, 192 kbps, 48 kHz, СBR, MVO ТК Россия
    Семпл: Скачать
    Код:

    Общее
    Уникальный идентификатор : 189052322876626147561753652206737152809 (0x8E3A2728EFFC623FB90AC5FB1CC5DB29)
    Полное имя : D:ХранилищеВидеоБольшое путешествиеBolshoe.puteshestvie.1995.HDTVRip.720p.mkv
    Формат : Matroska
    Версия формата : Version 4/Version 2
    Размер файла : 2, 36 Гбайт
    Продолжительность : 1 ч. 26 м.
    Общий поток : 3882 Кбит/сек
    Дата кодирования : UTC 2015-09-09 23:27:21
    Программа кодирования : mkvmerge v8.3.0 (\'Over the Horizon\') 64bit
    Библиотека кодирования : libebml v1.3.1 + libmatroska v1.4.2
    Attachements : cover.jpg/cover.jpg
    DURATION : 01:26:51.104000000
    NUMBER_OF_FRAMES : 162847
    NUMBER_OF_BYTES : 125066496
    _STATISTICS_WRITING_APP : mkvmerge v8.3.0 (\'Over the Horizon\') 64bit
    _STATISTICS_WRITING_DATE_UTC : 2015-09-09 23:27:21
    _STATISTICS_TAGS : BPS DURATION NUMBER_OF_FRAMES NUMBER_OF_BYTES
    Видео
    Идентификатор : 1
    Формат : AVC
    Формат/Информация : Advanced Video Codec
    Профиль формата :High@L4.1
    Параметр CABAC формата : Да
    Параметр ReFrames формата : 9 кадров
    Идентификатор кодека : V_MPEG4/ISO/AVC
    Продолжительность : 1 ч. 26 м.
    Битрейт : 3500 Кбит/сек
    Ширина : 1280 пикселей
    Высота : 720 пикселей
    Соотношение сторон : 16:9
    Режим частоты кадров : Постоянный
    Частота кадров : 25, 000 кадров/сек
    Цветовое пространство : YUV
    Субдискретизация насыщенности : 4:2:0
    Битовая глубина : 8 бит
    Тип развёртки : Прогрессивная
    Бит/(Пиксели*Кадры) : 0.152
    Размер потока : 2, 08 Гбайт (88%)
    Библиотека кодирования : x264 core 146 r2538 121396c
    Настройки программы : cabac=1/ref=9/deblock=1:0:0/analyse=0x3:0x133/me=esa/subme=11/psy=1/psy_rd=1.00:0.00/mixed_ref=1/me_range=32/chroma_me=1/trellis=2/8x8dct=1/cqm=0/deadzone=21, 11/fast_pskip=0/chroma_qp_offset=-2/threads=18/lookahead_threads=1/sliced_threads=0/nr=0/decimate=1/interlaced=0/bluray_compat=0/constrained_intra=0/bframes=3/b_pyramid=2/b_adapt=2/b_bias=0/direct=3/weightb=0/open_gop=0/weightp=2/keyint=250/keyint_min=25/scenecut=40/intra_refresh=0/rc_lookahead=100/rc=2pass/mbtree=1/bitrate=3500/ratetol=5.0/qcomp=0.70/qpmin=0/qpmax=69/qpstep=4/cplxblur=20.0/qblur=0.5/vbv_maxrate=62500/vbv_bufsize=78125/nal_hrd=none/filler=0/ip_ratio=1.40/aq=1:1.00
    Default : Да
    Forced : Нет
    Аудио #1
    Идентификатор : 2
    Формат : AC-3
    Формат/Информация : Audio Coding 3
    Расширение режима : CM (complete main)
    Параметр Endianness формата : Big
    Идентификатор кодека : A_AC3
    Продолжительность : 1 ч. 26 м.
    Вид битрейта : Постоянный
    Битрейт : 192 Кбит/сек
    Каналы : 2 канала
    Расположение каналов : Front: L R
    Частота : 48, 0 КГц
    Метод сжатия : С потерями
    Размер потока : 119 Мбайт (5%)
    Заголовок : Одноголосый авторский (Сербин)
    Язык : Russian
    Default : Нет
    Forced : Нет
    Аудио #2
    Идентификатор : 3
    Формат : AC-3
    Формат/Информация : Audio Coding 3
    Расширение режима : CM (complete main)
    Параметр Endianness формата : Big
    Идентификатор кодека : A_AC3
    Продолжительность : 1 ч. 26 м.
    Вид битрейта : Постоянный
    Битрейт : 192 Кбит/сек
    Каналы : 2 канала
    Расположение каналов : Front: L R
    Частота : 48, 0 КГц
    Метод сжатия : С потерями
    Задержка видео : 12 мс.
    Размер потока : 119 Мбайт (5%)
    Заголовок : Многоголосый проф. (ТК Россия)
    Язык : Russian
    Default : Нет
    Forced : Нет


    Скриншоты для ознакомления




    Большое путешествие/National Lampoons Senior Trip (1995) HDTVRip [H.264/720p-LQ]
    загрузка...
    Рейтинг →
     (голосов: 1, оценка 4/5, голосовать можно 1 раз )

    Другие торренты по теме:

  • Большое путешествие с Вадимом Такменёвым (2015.07.24) SATRip скачать через торрент бесплатно
  • Большое путешествие / National Lampoons Senior Trip (1995) DVDRip скачать через торрент бесплатно
  • Гранд тур / Большое путешествие / The Grand Tour (2016) HDTVRip [H.264 / 1080p] (сезон 1, серия 12) BMIRussian
  • Spacekraft - Большое космическое путешествие (2016) [FLAC|Lossless|WEB-DL|image + .cue] <Tech House, Techno, Neotrance>


    • Комментарии (0):

      Информация

      Информация

        Посетители, находящиеся в группе Гости, не могут оставлять комментарии в данной новости.

        ↓ Меню




        ↓ Опрос

        Вы добавили сайт в закладки?
        Да
        Нет


        Top 10 за месяц (Фильмы)