.
Авторизация | Регистрация
Хочешь лучшие торренты? Добавь свой email!
Добавить

Торрент скачать бесплатно

» » Лондонград. Знай наших (2015) SATRip (серии 1-3 из 16) (обновляемая) скачать через торрент бесплатно




    Лондонград. Знай наших (2015) SATRip (серии 1-3 из 16) (обновляемая) скачать через торрент бесплатно

    Опубликовал: Админ | Дата: 10-09-2015, 04:00 | Просмотров: 156

    Производство: Россия/Спутник Восток Продакшн
    Жанр: драма
    Режиссеры: Дмитрий Киселёв, Виталий Шепелев, Владислав Николаев
    Продюсеры: Вячеслав Муругов, Александр Кессель, Георгий Розинов

    Актеры
    Никита Ефремов, Ингрид Олеринская, Павел Ильин, Евгений Морозов, Сергей Рост, Никита Панфилов, Максим Виторган, Гоша Куценко, Алика Смехова, Иван Титов и др.

    Описание

    Главный герой Михаил Куликов бросил Оксфорд пять лет назад, не дотянув семестр до диплома, и нашёл своему уму и патологически непоседливому характеру другое применение. Миша — владелец и единственный сотрудник уникального агентства Лондонград, которое занимается решением проблем россиян в столице Англии. Спектр услуг агентства варьируется от безобидного встретить в аэропорту и нужен билет на Челси до улаживания конфликтов с органами правопорядка. О таком странном сюжете не догадывалась даже Анастасия Стоцкая. Беззаботная жизнь главного героя существенно осложняется, когда у него впервые появляется партнёр — Алиса Загорская…

    Дата российской премьеры: 7 сентября 2015
    Продолжительность: ~00: 51: 00 серия
    Качество видео: SATRip
    Видео: XviD, 720 x 400 (16: 9), ~1800 Кбит/сек
    Аудио: MP3 2.0, 128 Кбит/сек
    Код:
    Общее
    Полное имя : F:ВидеоЛондонград. Знай наших (2015) SATRipЛондонград. Знай наших_03.avi
    Формат : AVI
    Формат/Информация : Audio Video Interleave
    Размер файла : 655 Мбайт
    Продолжительность : 47 м.
    Общий поток : 1934 Кбит/сек
    Библиотека кодирования : VirtualDub build 29808/release
    Видео
    Идентификатор : 0
    Формат : MPEG-4 Visual
    Профиль формата : Advanced Simple@L5
    Параметр BVOP формата : 3
    Параметр QPel формата : Нет
    Параметр GMC формата : Без точки перехода
    Параметр матрицы формата : Default (H.263)
    Идентификатор кодека : XVID
    Идентификатор кодека/Подсказка : XviD
    Продолжительность : 47 м.
    Битрейт : 1796 Кбит/сек
    Ширина : 720 пикселей
    Высота : 400 пикселей
    Соотношение сторон : 16:9
    Частота кадров : 25, 000 кадров/сек
    Цветовое пространство : YUV
    Субдискретизация насыщенности : 4:2:0
    Битовая глубина : 8 бит
    Тип развёртки : Прогрессивная
    Метод сжатия : С потерями
    Бит/(Пиксели*Кадры) : 0.249
    Размер потока : 608 Мбайт (93%)
    Библиотека кодирования : XviD 1.2.1 (UTC 2008-12-04)
    Аудио
    Идентификатор : 1
    Формат : MPEG Audio
    Версия формата : Version 1
    Профиль формата : Layer 3
    Идентификатор кодека : 55
    Идентификатор кодека/Подсказка : MP3
    Продолжительность : 47 м.
    Вид битрейта : Постоянный
    Битрейт : 128 Кбит/сек
    Каналы : 2 канала
    Частота : 48, 0 КГц
    Метод сжатия : С потерями
    Размер потока : 43, 3 Мбайт (7%)
    Выравнивание : Соединение по промежуткам
    Продолжительность промежутка : 40 мс. (1, 00 видеокадр)
    Время предзагрузки промежутка : 504 мс.
    Библиотека кодирования : LAME3.99r
    Настройки программы : -m s -V 4 -q 2 -lowpass 17 -b 128


    Скриншоты для ознакомления




    Лондонград. Знай наших (2015) SATRip (серии 1-3 из 16) (обновляемая)
    загрузка...
    Рейтинг →
     (голосов: 1, оценка 3/5, голосовать можно 1 раз )

    Другие торренты по теме:



      Комментарии (0):

      Информация

      Информация

        Посетители, находящиеся в группе Гости, не могут оставлять комментарии в данной новости.

        ↓ Меню




        ↓ Опрос

        Вы добавили сайт в закладки?
        Да
        Нет


        Top 10 за месяц (Фильмы)