.
Авторизация | Регистрация
Хочешь лучшие торренты? Добавь свой email!
Добавить

Торрент скачать бесплатно

» » Подлый Пит / Хитрый Пит / Sneaky Pete (2015) WEB-DLRip (сезон 1, серии 1 из 10) AlexFilm (обновляемая) скачать через торрент бесплатно




    Подлый Пит / Хитрый Пит / Sneaky Pete (2015) WEB-DLRip (сезон 1, серии 1 из 10) AlexFilm (обновляемая) скачать через торрент бесплатно

    Опубликовал: Админ | Дата: 8-09-2015, 04:01 | Просмотров: 298

    Производство: США, Moon Shot Entertainment, Shore Z Productions, Sony Pictures Television
    Жанр: драма
    Режиссер: Сэт Гордон

    Актеры
    Джованни Рибизи, Марин Айрлэнд, Марго Мартиндейл, Шэйн МакРей, Либэ Барер, Питер Герети, Итэн Эмбри, Доменик Ломбардоззи, Дебра Монк, Майкл Дрэйер, Брайан Крэнстон и др.

    Описание

    По сюжету молодой мошенник Пит/Мариус, отсидев положенный срок, решает завязать с тёмным прошлым, примерив на себя личину бывшего сокамерника. Скрываясь от местной мафии, парень пристраивается в семейный бизнес того самого сокамерника. Со временем он осознает, что такое настоящая семья, и даже обретёт любовь всей своей жизни, но прошлые грехи не позволят ему расслабиться ни на минуту, угрожая уничтожить и главного героя, и его новую жизнь.

    Дата мировой премьеры: 7 августа 2015
    Продолжительность: ~00: 47: 00 серия
    Качество видео: WEB-DLRip
    Перевод: Многоголосый закадровый, профессиональный -AlexFilm
    Автор перевода: Константин Кривоногов
    Озвучка: Татьяна Манетина, Михаил Суслов, Владимир Курдов, Константин Погодаев, Михаил Алексеев
    Видео: MPEG4, XviD, 720x400 (16: 9), ~1402 Kbps
    Аудио Rus: MP3, 48.0 KHz, 2 ch, 128 Kbps, CBR — многоголосый закадровый
    Аудио Eng: MP3, 48.0 KHz, 2 ch, 128 Kbps, CBR — оригинал
    General
    Complete name : F: СериалраздачаSneaky.Pete .Season 1 (AlexFilm) WEB-DLRipSneaky.Pete.s01e01.WEB-DLRip.Rus.Eng.AlexFilm.avi
    Format : AVI
    Format/Info : Audio Video Interleave
    File size : 574 MiB
    Duration : 48mn 0s
    Overall bit rate : 1 672 Kbps
    Movie name : Sneaky Pete 1x01 @ AlexFilm
    Writing application : VirtualDubMod 1.5.10.2 (build 2540/release)
    Writing library : VirtualDubMod build 2540/release
    Video
    ID : 0
    Format : MPEG-4 Visual
    Format profile : Advanced Simple@L5
    Format settings, BVOP : No
    Format settings, QPel : No
    Format settings, GMC : No warppoints
    Format settings, Matrix : Default (H.263)
    Codec ID : XVID
    Codec ID/Hint : XviD
    Duration : 48mn 0s
    Bit rate : 1 402 Kbps
    Width : 720 pixels
    Height : 400 pixels
    Display aspect ratio : 16: 9
    Frame rate : 23.976 fps
    Color space : YUV
    Chroma subsampling : 4: 2: 0
    Bit depth : 8 bits
    Scan type : Progressive
    Bits/(Pixel*Frame) : 0.203
    Stream size : 481 MiB (84%)
    Writing library : XviD 73
    Audio #1
    ID : 1
    Format : MPEG Audio
    Format version : Version 1
    Format profile : Layer 3
    Mode : Joint stereo
    Mode extension : MS Stereo
    Codec ID : 55
    Codec ID/Hint : MP3
    Duration : 47mn 59s
    Bit rate mode : Constant
    Bit rate : 128 Kbps
    Channel(s) : 2 channels
    Sampling rate : 48.0 KHz
    Stream size : 43.9 MiB (8%)
    Alignment : Aligned on interleaves
    Interleave, duration : 42 ms (1.00 video frame)
    Interleave, preload duration : 504 ms
    Title : Russian (AlexFilm)
    Writing library : LAME3.99r
    Encoding settings : -m j -V 4 -q 3 -lowpass 18 -b 128
    Audio #2
    ID : 2
    Format : MPEG Audio
    Format version : Version 1
    Format profile : Layer 3
    Mode : Joint stereo
    Mode extension : MS Stereo
    Codec ID : 55
    Codec ID/Hint : MP3
    Duration : 48mn 0s
    Bit rate mode : Constant
    Bit rate : 128 Kbps
    Channel(s) : 2 channels
    Sampling rate : 48.0 KHz
    Stream size : 43.9 MiB (8%)
    Alignment : Aligned on interleaves
    Interleave, duration : 42 ms (1.00 video frame)
    Interleave, preload duration : 504 ms
    Title : English


    Скриншоты для ознакомления




    Подлый Пит/Хитрый Пит/Sneaky Pete (2015) WEB-DLRip (сезон 1, серии 1 из 10) AlexFilm (обновляемая)
    загрузка...
    Рейтинг →
     (голосов: 1, оценка 4/5, голосовать можно 1 раз )

    Другие торренты по теме:

  • Подлый Пит / Хитрый Пит / Sneaky Pete (2015) WEB-DLRip (cезон 1, серии 1- из ) Jimmy J (обновляемая) скачать через торрент бесплатно
  • Подлый Пит / Хитрый Пит / Sneaky Pete (2015) WEB-DL [H.264 / 720p-LQ] (сезон 1, серии 1 из 10) AlexFilm (обновляемая) скачать через торрент бесплатно
  • Подлый Пит / Хитрый Пит / Sneaky Pete (2015) WEBRip (сезон 1, серии 1 из 10) LostFilm (обновляемая)
  • Подлый Пит / Хитрый Пит / Sneaky Pete (2015) WEBRip [H.264 / 1080p] (сезон 1, серии 1 из 10) LostFilm (обновляемая)


    • Комментарии (0):

      Информация

      Информация

        Посетители, находящиеся в группе Гости, не могут оставлять комментарии в данной новости.

        ↓ Меню




        ↓ Опрос

        Вы добавили сайт в закладки?
        Да
        Нет


        Top 10 за месяц (Фильмы)