.
Авторизация | Регистрация
Хочешь лучшие торренты? Добавь свой email!
Добавить

Торрент скачать бесплатно

» » Интерны (2015) SATRip (сезон 13, серии 1-2 из ) (обновляемая) скачать через торрент бесплатно




    Интерны (2015) SATRip (сезон 13, серии 1-2 из ) (обновляемая) скачать через торрент бесплатно

    Опубликовал: Админ | Дата: 8-09-2015, 04:01 | Просмотров: 159

    Производство: Россия, Комеди Клаб Продакшн по заказу тнт
    Жанр: комедия, ситком
    Режиссер: Радда Новикова

    Актеры
    Иван Охлобыстин, Илья Глинников, Александр Ильин мл., Вадим Демчог, Аглая Тарасова, Юлия Назаренко, Светлана Камынина, Яна Гурьянова, Один Ланд Байрон, Татьяна Лянник, Мария Пирогова

    Описание

    Некоторые люди в белых халатах уверены, что сердце - всего лишь мышца, качающая кровь. Но только не герои нового сезон любимого сериалаа Интернов. О таком странном сюжете не догадывалась даже Вера Брежнева. На вверенном доктору Быкову этаже кипят пушкинские страсти: интриги, секс и любовные треугольники стали нормой жизни . А перчинки всему этому добавят шаманы в палатах, жены с почасовой оплатой и всего один, но зато настоящий пистолет. Все смешалось в отделении доктора Быкова!

    Возраст: 16+
    Дата российской премьеры: 7 сентября 2015
    Продолжительность: ~ 00: 24: 00 серия
    Качество видео: SATRip
    Видео: XviD, 720x400, 1800 kb/s
    Аудио: 48 kHz, MPEG Layer 3, 2 ch, ~128.00 kbps
    Общее
    Полное имя : D: Интерны.(2015).SATRip.nnm-clubИнтерны.02.серия.2015.avi
    Формат : AVI
    Формат/Информация : Audio Video Interleave
    Размер файла : 340 Мбайт
    Продолжительность : 24 м.
    Общий поток : 1935 Кбит/сек
    Программа кодирования : VirtualDubMod 1.5.10.3 | (build 2550/release)
    Библиотека кодирования : VirtualDub build 29808/release
    Видео
    Идентификатор : 0
    Формат : MPEG-4 Visual
    Профиль формата : Advanced Simple@L5
    Параметр BVOP формата : 3
    Параметр QPel формата : Нет
    Параметр GMC формата : Без точки перехода
    Параметр матрицы формата : Default (H.263)
    Идентификатор кодека : XVID
    Идентификатор кодека/Подсказка : XviD
    Продолжительность : 24 м.
    Битрейт : 1797 Кбит/сек
    Ширина : 720 пикселей
    Высота : 400 пикселей
    Соотношение сторон : 16: 9
    Частота кадров : 25, 000 кадров/сек
    Цветовое пространство : YUV
    Субдискретизация насыщенности : 4: 2: 0
    Битовая глубина : 8 бит
    Тип развёртки : Прогрессивная
    Метод сжатия : С потерями
    Бит/(Пиксели*Кадры) : 0.250
    Размер потока : 316 Мбайт (93%)
    Библиотека кодирования : XviD 1.2.1 (UTC 2008-12-04)
    Аудио
    Идентификатор : 1
    Формат : MPEG Audio
    Версия формата : Version 1
    Профиль формата : Layer 3
    Идентификатор кодека : 55
    Идентификатор кодека/Подсказка : MP3
    Продолжительность : 24 м.
    Вид битрейта : Постоянный
    Битрейт : 128 Кбит/сек
    Каналы : 2 канала
    Частота : 48, 0 КГц
    Метод сжатия : С потерями
    Размер потока : 22, 5 Мбайт (7%)
    Выравнивание : Соединение по промежуткам
    Продолжительность промежутка : 40 мс. (1, 00 видеокадр)
    Время предзагрузки промежутка : 504 мс.
    Библиотека кодирования : LAME3.99r
    Настройки программы : -m s -V 4 -q 2 -lowpass 17 -b 128


    Скриншоты для ознакомления




    Интерны (2015) SATRip (сезон 13, серии 1-2 из ) (обновляемая)
    загрузка...
    Рейтинг →
     (голосов: 1, оценка 3/5, голосовать можно 1 раз )

    Другие торренты по теме:

  • Интерны (2014) SATRip (Сезон 11, серии 1-2 из 23) (Обновляемая) скачать через торрент бесплатно
  • Интерны (Серии 1-224 из 224) и Фильм о фильме (1-2 части) (2010-2014) DVDRip / SATRip / WEB-DLRip
  • Интерны. Новогодняя серия (2014) SATRip (Серия 225) [Обновляемая]
  • Интерны (2016) SATRip (сезон 14, серии 1-2 из 20) (обновляемая)


    • Комментарии (0):

      Информация

      Информация

        Посетители, находящиеся в группе Гости, не могут оставлять комментарии в данной новости.

        ↓ Меню




        ↓ Опрос

        Вы добавили сайт в закладки?
        Да
        Нет


        Top 10 за месяц (Фильмы)