.
Авторизация | Регистрация
Хочешь лучшие торренты? Добавь свой email!
Добавить

Торрент скачать бесплатно

» » Короли побега / Breakout Kings (2011-2012) HDTVRip / WEB-DLRip (сезон 1-2, серии 1 - 23 из 23) скачать через торрент бесплатно




    Короли побега / Breakout Kings (2011-2012) HDTVRip / WEB-DLRip (сезон 1-2, серии 1 - 23 из 23) скачать через торрент бесплатно

    Опубликовал: Админ | Дата: 8-09-2015, 04:01 | Просмотров: 77

    Производство: США
    Жанр: триллер, драма, криминал
    Режиссер: Билл Джирхарт, Гэвин Худ

    Актеры
    Малкольм Гудвин, Джимми Симпсон, Брук Невин, Лас Алонсо, Доменик Ломбардоззи, Серинда Свон, Andy Clitheroe, Шон Делани и др

    Описание

    Сериал рассказывает о команде состоящей из приставов и бывших беглецов, которые работают вместе, чтобы ловить сбежавших из тюрьмы преступников. Руководствуясь тем, что есть вещи более опасные чем только что сбежавший заключённый, и уставшие от последующих за этим протоколов и обращению к устаревшим методам поиска, опытные приставы США Чарли Дюшамп и Рэй Занкенелли проявляют необычный подход к своей работе: с помощью бывших беглецов ловить сбежавших из тюрьмы заключённых.

    Продолжительность: ~00: 43: 00 серия
    Качество видео: HDTVRip/WEB-DLRip
    Перевод: Многоголосый закадровый, любительский -DreamRecords
    Двухголосый закадровый, профессиональный -NewStudio
    Видео: Xvid, 624x352, (16: 9), ~1000 кбит/с
    Сезон 1:
    Аудио : MP3, 44, 1 kHz, 2 ch, 160 кбит/с, CBR | DreamRecords |
    Сезон 2:
    Аудио № 1 Rus: MP3, 48 kHz, 2 ch, 128 Кбит/с, CBR | NewStudio |
    Аудио № 2 Eng: MP3, 48 kHz, 2 ch, 128 Кбит/с, VBR | оригинал |
    Сэмпл: Сезон 1 , Сезон 2
    Код:

    General
    Complete name : E:Короли побегаСезон 1Breakout.Kings.S01E08.HDTV.XviD.DreamRecords.Tv.avi
    Format : AVI
    Format/Info : Audio Video Interleave
    File size : 357 MiB
    Duration : 42mn 39s
    Overall bit rate mode : Variable
    Overall bit rate : 1 171 Kbps
    Writing application : VirtualDubModRus 1.5.10.2 (build 2542/release)
    Writing library : VirtualDubMod build 2542/release
    Video
    ID : 0
    Format : MPEG-4 Visual
    Format profile : Advanced Simple@L5
    Format settings, BVOP : 2
    Format settings, QPel : No
    Format settings, GMC : No warppoints
    Format settings, Matrix : Default (H.263)
    Codec ID : XVID
    Codec ID/Hint : XviD
    Duration : 42mn 39s
    Bit rate : 1 000 Kbps
    Width : 624 pixels
    Height : 352 pixels
    Display aspect ratio : 16:9
    Frame rate : 23.976 fps
    Color space : YUV
    Chroma subsampling : 4:2:0
    Bit depth : 8 bits
    Scan type : Progressive
    Compression mode : Lossy
    Bits/(Pixel*Frame) : 0.190
    Stream size : 305 MiB (85%)
    Writing library : XviD 1.2.1 (UTC 2008-12-04)
    Audio
    ID : 1
    Format : MPEG Audio
    Format version : Version 1
    Format profile : Layer 3
    Mode : Joint stereo
    Mode extension : MS Stereo
    Codec ID : 55
    Codec ID/Hint : MP3
    Duration : 42mn 39s
    Bit rate mode : Variable
    Bit rate : 160 Kbps
    Channel(s) : 2 channels
    Sampling rate : 44.1 KHz
    Compression mode : Lossy
    Stream size : 49.4 MiB (14%)
    Alignment : Split accross interleaves
    Interleave, duration : 42 ms (1.00 video frame)
    Interleave, preload duration : 500 ms
    Код:
    General
    Complete name : E:Короли побегаСезон 2Breakout.Kings.S02E07.WEB-DLRip_NewStudio.TV.avi
    Format : AVI
    Format/Info : Audio Video Interleave
    File size : 400 MiB
    Duration : 42mn 33s
    Overall bit rate mode : Variable
    Overall bit rate : 1 314 Kbps
    Writing application : VirtualDubMod 1.5.10.2 (build 2540/release)
    Writing library : VirtualDubMod build 2540/release
    Video
    ID : 0
    Format : MPEG-4 Visual
    Format profile : Advanced Simple@L5
    Format settings, BVOP : 2
    Format settings, QPel : No
    Format settings, GMC : No warppoints
    Format settings, Matrix : Default (MPEG)
    Codec ID : XVID
    Codec ID/Hint : XviD
    Duration : 42mn 33s
    Bit rate : 1 039 Kbps
    Width : 624 pixels
    Height : 352 pixels
    Display aspect ratio : 16:9
    Frame rate : 23.976 fps
    Color space : YUV
    Chroma subsampling : 4:2:0
    Bit depth : 8 bits
    Scan type : Progressive
    Compression mode : Lossy
    Bits/(Pixel*Frame) : 0.197
    Stream size : 316 MiB (79%)
    Writing library : XviD 64
    Audio #1
    ID : 1
    Format : MPEG Audio
    Format version : Version 1
    Format profile : Layer 3
    Mode : Joint stereo
    Mode extension : MS Stereo
    Codec ID : 55
    Codec ID/Hint : MP3
    Duration : 42mn 33s
    Bit rate mode : Constant
    Bit rate : 128 Kbps
    Channel(s) : 2 channels
    Sampling rate : 48.0 KHz
    Compression mode : Lossy
    Stream size : 39.0 MiB (10%)
    Alignment : Aligned on interleaves
    Interleave, duration : 42 ms (1.00 video frame)
    Interleave, preload duration : 504 ms
    Audio #2
    ID : 2
    Format : MPEG Audio
    Format version : Version 1
    Format profile : Layer 3
    Mode : Joint stereo
    Mode extension : MS Stereo
    Codec ID : 55
    Codec ID/Hint : MP3
    Duration : 42mn 33s
    Bit rate mode : Variable
    Bit rate : 128 Kbps
    Channel(s) : 2 channels
    Sampling rate : 48.0 KHz
    Compression mode : Lossy
    Stream size : 39.5 MiB (10%)
    Alignment : Aligned on interleaves
    Interleave, duration : 24 ms (0.58 video frame)
    Interleave, preload duration : 500 ms
    Writing library : LAME3.90.
    Encoding settings : -m j -V 4 -q 2 -lowpass 17.6 --abr 128


    Скриншоты для ознакомления




    Короли побега/Breakout Kings (2011-2012) HDTVRip/WEB-DLRip (сезон 1-2, серии 1 - 23 из 23)
    загрузка...
    Рейтинг →
     (голосов: 1, оценка 4/5, голосовать можно 1 раз )

    Другие торренты по теме:

  • Книжная серия | Короли Fantasy [37 книг] (2007 – 2008) [FB2]
  • SingStar: Ultimate Party | Короли Вечеринок [PS3] [EUR] [Ru] [4.53+] (2014) скачать через торрент бесплатно
  • National Geographic. Короли рыбалки. Часть 1 / National Geographic king fish (2013) HDTVRip [H.264 / 1080i] скачать через торрент бесплатно
  • National Geographic. Короли рыбалки. (Серия 1-3 из 11) HDTVRip (2013) скачать через торрент бесплатно
  • Discovery: Короли столярного дела / Redwood KINGS (2013) HDTVRip (Серия 1) скачать через торрент бесплатно
  • Discovery: Короли столярного дела / Redwood KINGS (2013) HDTVRip (Серия 4)
  • Discovery: Короли столярного дела / Redwood KINGS (2013) HDTVRip (Серия 5) скачать через торрент бесплатно
  • Discovery: Короли столярного дела / Redwood KINGS (2013) HDTVRip (Серия 6)


    • Комментарии (0):

      Информация

      Информация

        Посетители, находящиеся в группе Гости, не могут оставлять комментарии в данной новости.

        ↓ Меню




        ↓ Опрос

        Вы добавили сайт в закладки?
        Да
        Нет


        Top 10 за месяц (Фильмы)