.
Авторизация | Регистрация
Хочешь лучшие торренты? Добавь свой email!
Добавить

Торрент скачать бесплатно

» » Последний из Магикян (2015) SATRip (сезон 5, серии 1-2 из 20) (обновляемая) скачать через торрент бесплатно




    Последний из Магикян (2015) SATRip (сезон 5, серии 1-2 из 20) (обновляемая) скачать через торрент бесплатно

    Опубликовал: Админ | Дата: 8-09-2015, 04:01 | Просмотров: 56

    Производство: Россия, Yellow, Black and White, кинокомпания Небо
    Жанр: комедия
    Режиссер: Резо Гигинеишвили

    Актеры
    Грант Тохатян, Анна Ардова, Элен Касьяник, Алина Гринберг, Луиза-Габриэла Бровина, Андрей Бурковский, Ирина Алферова, Темико Чичинадзе, Александр Феклистов, Наталия Вдовина, Наталия Курдюбова, Игорь Верник, Ерванд (Эрик) Арзуманян, Карэн Бадалов, Игорь Гаспарян, Николай Тамразов, Артур Диланян, Амина Хасанова, Надежда Михалкова, Екатерина Симаходская, Борис Львович, Мухтар Гусенгаджиев, Сергей Подольный

    Описание

    На радость всем поклонникам семейства Магикян - новый, вот уже пятый сезон любимого сериала сериала, в котором мы вновь будем наблюдать за развитием событий в жизни главных героев. Если вы следили за событиями предыдущих четырёх сезон любимого сериалаов, вы уже знаете, что жизнь героев никак нельзя назвать спокойной и размеренной. Глава семейства - Карен, человек весьма консервативных взглядов, который настороженно относится ко всему новому, что вносит некоторые неудобства в жизни его более прогрессивных близких. Всю свою жизнь Карен мечтал о сыне, однако, судьба дала ему пока что только дочерей. Все три дочери Карена очень разные и непохожи друг на друга, но все по-своему любимы и каждая дарит отцу частичку своей любви и радости

    Продолжительность: ~ 00: 25: 00 серия
    Качество видео: SATRip
    Видео: XviD, 720x400 (16: 9), ~1800 kb/s
    Аудио: MPEG Layer 3, 44.1 kHz, 2 ch, 128 kb/s, CBR
    General
    Complete name : D: Последний из Магикян (5 сезон любимого сериала)Poslednii.iz.magikyan.5.01.SATRip.avi
    Format : AVI
    Format/Info : Audio Video Interleave
    File size : 338 MiB
    Duration : 24mn 22s
    Overall bit rate : 1 938 Kbps
    Writing application : VirtualDubMod 1.5.10.3 |www.virtualdub-fr.org|| (build 2550/release)
    Writing library : VirtualDubMod build 2550/release
    Video
    ID : 0
    Format : MPEG-4 Visual
    Format profile : Advanced Simple@L5
    Format settings, BVOP : 2
    Format settings, QPel : No
    Format settings, GMC : No warppoints
    Format settings, Matrix : Default (MPEG)
    Codec ID : XVID
    Codec ID/Hint : XviD
    Duration : 24mn 22s
    Bit rate : 1 800 Kbps
    Width : 720 pixels
    Height : 400 pixels
    Display aspect ratio : 16: 9
    Frame rate : 25.000 fps
    Color space : YUV
    Chroma subsampling : 4: 2: 0
    Bit depth : 8 bits
    Scan type : Progressive
    Compression mode : Lossy
    Bits/(Pixel*Frame) : 0.250
    Stream size : 314 MiB (93%)
    Writing library : XviD 1.2.1 (UTC 2008-12-04)
    Audio
    ID : 1
    Format : MPEG Audio
    Format version : Version 1
    Format profile : Layer 3
    Codec ID : 55
    Codec ID/Hint : MP3
    Duration : 24mn 22s
    Bit rate mode : Constant
    Bit rate : 128 Kbps
    Channel(s) : 2 channels
    Sampling rate : 48.0 KHz
    Compression mode : Lossy
    Stream size : 22.3 MiB (7%)
    Alignment : Aligned on interleaves
    Interleave, duration : 40 ms (1.00 video frame)
    Interleave, preload duratio : 504 ms
    Writing library : LAME3.99r
    Encoding settings : -m s -V 4 -q 2 -lowpass 17 -b 128


    Скриншоты для ознакомления




    Последний из Магикян (2015) SATRip (сезон 5, серии 1-2 из 20) (обновляемая)
    загрузка...
    Рейтинг →
     (голосов: 1, оценка 5/5, голосовать можно 1 раз )

    Другие торренты по теме:

  • Последний из Магикян (2013) WEB-DLRip [H.264 / 1080p-LQ] [Сезон 1-2, Серия 1-28] скачать через торрент бесплатно
  • Последний из Магикян (2013-2014) DVDRip [H.264] (Сезоны 1-2, серии 1-28 из 28)
  • Последний из Магикян (2013-2014) DVDRip (Сезоны 1-2, серии 1-28 из 28)
  • Последний из Магикян (2015) WEB-DLRip (сезон 4, серии 1-2 из 20) (обновляемая) скачать через торрент бесплатно
  • Последний из Магикян (2015) SATRip (сезон 4, серии 1-2 из 20) (обновляемая) скачать через торрент бесплатно
  • Последний из Магикян (2015) WEB-DLRip (сезон 5, серии 1- из 20) (обновляемая) скачать через торрент бесплатно
  • Последний из Магикян (2015) WEB-DLRip [H.264 / 720p-LQ] (сезон 5, серии 1- из 20) (обновляемая) скачать через торрент бесплатно
  • Последний из Магикян (2015) WEB-DLRip [H.264 / 1080p-LQ] (сезон 5, серии 1- из 20) (обновляемая) скачать через торрент бесплатно


    • Комментарии (0):

      Информация

      Информация

        Посетители, находящиеся в группе Гости, не могут оставлять комментарии в данной новости.

        ↓ Меню




        ↓ Опрос

        Вы добавили сайт в закладки?
        Да
        Нет


        Top 10 за месяц (Фильмы)