.
Авторизация | Регистрация
Хочешь лучшие торренты? Добавь свой email!
Добавить

Торрент скачать бесплатно

» » Неподкупный (2015) SATRip (серии 1-3 из 16) (обновляемая) скачать через торрент бесплатно




    Неподкупный (2015) SATRip (серии 1-3 из 16) (обновляемая) скачать через торрент бесплатно

    Опубликовал: Админ | Дата: 8-09-2015, 04:01 | Просмотров: 54

    Производство: Россия, СВЭЛЛ фильм
    Жанр: криминал
    Режиссер: Александр Даруга, Марат Ким

    Актеры
    Владимир Епифанцев, Ирина Розанова, Владимир Юматов, Марина Коняшкина, Андрей Носков, Жанна Эппле, Михаил Тарабукин, Мария Козлова, Иван Мацкевич, Алексей Даруга

    Описание

    Когда в преступлениях замешана верхушка правящей элиты, а заказчиками оказываются представители властных структур, слишком многие заинтересованы в том, чтобы следствие поскорее было закрыто, а истинные виновные никогда не были найдены. Тем более что по официальным данным, коррупции в СССР не было. Многочисленные факты взяточничества, злоупотреблений властью, сращивания чиновничьего аппарата с криминалом и фальсификации судебных дел не предавались огласке. Однако в 80-е годы были выявлены и обнародованы данные о грандиозных по масштабу преступлениях, которые прогремели на всю страну.

    Дата Российской премьеры: 7 сентября 2015
    Продолжительность: ~ 00: 44: 00 серия
    Качество видео: SATRip
    Видео: XviD, 720x384 (16: 9), ~1800 kb/s
    Аудио: MPEG Layer 3, 44.1 kHz, 2 ch, 128 kb/s, CBR
    General
    Complete name : D: Неподкупный SatRipNepodkupnyj.01.SATRip.avi
    Format : AVI
    Format/Info : Audio Video Interleave
    File size : 609 MiB
    Duration : 43mn 57s
    Overall bit rate : 1 938 Kbps
    Writing application : VirtualDubMod 1.5.10.3 |www.virtualdub-fr.org|| (build 2550/release)
    Writing library : VirtualDubMod build 2550/release
    Video
    ID : 0
    Format : MPEG-4 Visual
    Format profile : Advanced Simple@L5
    Format settings, BVOP : 2
    Format settings, QPel : No
    Format settings, GMC : No warppoints
    Format settings, Matrix : Default (MPEG)
    Codec ID : XVID
    Codec ID/Hint : XviD
    Duration : 43mn 57s
    Bit rate : 1 800 Kbps
    Width : 720 pixels
    Height : 384 pixels
    Display aspect ratio : 1.85: 1
    Frame rate : 25.000 fps
    Color space : YUV
    Chroma subsampling : 4: 2: 0
    Bit depth : 8 bits
    Scan type : Progressive
    Compression mode : Lossy
    Bits/(Pixel*Frame) : 0.260
    Stream size : 566 MiB (93%)
    Writing library : XviD 1.2.1 (UTC 2008-12-04)
    Audio
    ID : 1
    Format : MPEG Audio
    Format version : Version 1
    Format profile : Layer 3
    Mode : Joint stereo
    Mode extension : MS Stereo
    Codec ID : 55
    Codec ID/Hint : MP3
    Duration : 43mn 57s
    Bit rate mode : Constant
    Bit rate : 128 Kbps
    Channel(s) : 2 channels
    Sampling rate : 48.0 KHz
    Compression mode : Lossy
    Stream size : 40.2 MiB (7%)
    Alignment : Aligned on interleaves
    Interleave, duration : 40 ms (1.00 video frame)
    Interleave, preload duratio : 504 ms
    Writing library : LAME3.99r
    Encoding settings : -m j -V 4 -q 9 -lowpass 17 -b 128


    Скриншоты для ознакомления




    Неподкупный (2015) SATRip (серии 1-3 из 16) (обновляемая)
    загрузка...
    Рейтинг →
     (голосов: 1, оценка 4/5, голосовать можно 1 раз )

    Другие торренты по теме:

  • Неподкупный (2015) HDTVRip (серии 1-16 из 16) скачать через торрент бесплатно
  • Неподкупный (2015) HDTVRip [H.264 / 720p-LQ] (серии 1-16 из 16) скачать через торрент бесплатно
  • Неподкупный (2015) HDTV [H.264 / 1080i] (серии 1-16 из 16) скачать через торрент бесплатно
  • Неподкупный (2015) WEB-DLRip [H.264 / 1080p-LQ] (серии 1-16 из 16) скачать через торрент бесплатно
  • Неподкупный (2015) WEB-DLRip [H.264 / 720p-LQ] (серии 1-16 из 16) скачать через торрент бесплатно
  • Неподкупный (2015) WEBRip (серии 1-16 из 16)


    • Комментарии (0):

      Информация

      Информация

        Посетители, находящиеся в группе Гости, не могут оставлять комментарии в данной новости.

        ↓ Меню




        ↓ Опрос

        Вы добавили сайт в закладки?
        Да
        Нет


        Top 10 за месяц (Фильмы)