.
Авторизация | Регистрация
Хочешь лучшие торренты? Добавь свой email!
Добавить

Торрент скачать бесплатно

» » Последний из Магикян (2015) WEB-DLRip (сезон 5, серии 1- из 20) (обновляемая) скачать через торрент бесплатно




    Последний из Магикян (2015) WEB-DLRip (сезон 5, серии 1- из 20) (обновляемая) скачать через торрент бесплатно

    Опубликовал: Админ | Дата: 8-09-2015, 04:01 | Просмотров: 95

    Производство: Россия, Yellow, Black and White
    Жанр: комедия
    Режиссер: Резо Гигинеишвили, Акаки Сахелашвили

    Актеры
    Грант Тохатян, Анна Ардова, Элен Касьяник, Алина Гринберг, Луиза-Габриэла Бровина, Андрей Бурковский, Темико Чичинадзе, Александр Феклистов, Наталья Вдовина, Ирина Алферова и др.

    Описание фильма

    Карену Магикяну 50 лет. Он — глава семьи и отец трех дочерей. В этом возрасте люди уже не меняются. Он давно сформулировал законы и правила, по которым живет, и нарушать ничего не собирается. Ему-то самому кажется, что за последние 10-15 лет он ничуть не изменился, ни капельки не постарел. Более того — он считает себя вполне современным человеком, хотя у него мобильный телефон с черно-белым экраном и нет электронной почты.
    Карен — Последний из Магикян. И не только потому, что у него три дочери, а наследника в таком возрасте явно не предвидится. Он — представитель исчезающего вида людей, которые никогда не разговаривали по скайпу, для которых письмо — это исписанная буквами бумага в конверте, а самое главное — которые не прогибаются под меняющийся мир, потому что сейчас так принято и ты живешь в 21 веке. Зрители помладше должны узнать в нем своих родителей, зрители постарше должны в нем узнать себя.

    Продолжительность: ~ 00: 25: 00 серия
    Качество видео: WEB-DLRip
    Видео: XVID, 720x400 (16: 9), ~1800 Kbps
    Аудио: AC3, 2 ch, 192 Kbps
    Код:
    Общее
    Полное имя : F:DOWNLOADSПоследний из Магикян (5 сезон любимого сериала) 2015 WEB-DLRipПоследний из Магикян 5 - 01 серия.avi
    Формат : AVI
    Формат/Информация : Audio Video Interleave
    Размер файла : 351 Мбайт
    Продолжительность : 24 м.
    Общий поток : 2003 Кбит/сек
    Программа кодирования : VirtualDubMod 1.5.10.3 |www.virtualdub-fr.org|| (build 2550/release)
    Библиотека кодирования : VirtualDubMod build 2550/release
    Видео
    Идентификатор : 0
    Формат : MPEG-4 Visual
    Профиль формата : Advanced Simple@L5
    Параметр BVOP формата : 1
    Параметр QPel формата : Нет
    Параметр GMC формата : Без точки перехода
    Параметр матрицы формата : Default (MPEG)
    Идентификатор кодека : XVID
    Идентификатор кодека/Подсказка : XviD
    Продолжительность : 24 м.
    Битрейт : 1801 Кбит/сек
    Ширина : 720 пикселей
    Высота : 400 пикселей
    Соотношение сторон : 16:9
    Частота кадров : 25, 000 кадров/сек
    Цветовое пространство : YUV
    Субдискретизация насыщенности : 4:2:0
    Битовая глубина : 8 бит
    Тип развёртки : Прогрессивная
    Метод сжатия : С потерями
    Бит/(Пиксели*Кадры) : 0.250
    Размер потока : 316 Мбайт (90%)
    Библиотека кодирования : XviD 73
    Аудио
    Идентификатор : 1
    Формат : AC-3
    Формат/Информация : Audio Coding 3
    Расширение режима : CM (complete main)
    Параметр Endianness формата : Big
    Идентификатор кодека : 2000
    Продолжительность : 24 м.
    Вид битрейта : Постоянный
    Битрейт : 192 Кбит/сек
    Каналы : 2 канала
    Расположение каналов : Front: L R
    Частота : 48, 0 КГц
    Метод сжатия : С потерями
    Размер потока : 33, 7 Мбайт (10%)
    Выравнивание : Разделение по промежуткам
    Продолжительность промежутка : 40 мс. (1, 00 видеокадр)
    Время предзагрузки промежутка : 500 мс.


    Скриншоты для ознакомления




    Последний из Магикян (2015) WEB-DLRip (сезон 5, серии 1- из 20) (обновляемая)
    загрузка...
    Рейтинг →
     (голосов: 1, оценка 5/5, голосовать можно 1 раз )

    Другие торренты по теме:

  • Последний из Магикян (2013) WEB-DLRip [H.264 / 1080p-LQ] [Сезон 1-2, Серия 1-28] скачать через торрент бесплатно
  • Последний из Магикян (2013-2014) DVDRip [H.264] (Сезоны 1-2, серии 1-28 из 28)
  • Последний из Магикян (2013-2014) DVDRip (Сезоны 1-2, серии 1-28 из 28)
  • Последний из Магикян (2015) WEB-DLRip (сезон 4, серии 1-2 из 20) (обновляемая) скачать через торрент бесплатно
  • Последний из Магикян (2015) SATRip (сезон 4, серии 1-2 из 20) (обновляемая) скачать через торрент бесплатно
  • Последний из Магикян (2015) WEB-DLRip [H.264 / 720p-LQ] (сезон 5, серии 1- из 20) (обновляемая) скачать через торрент бесплатно
  • Последний из Магикян (2015) WEB-DLRip [H.264 / 1080p-LQ] (сезон 5, серии 1- из 20) (обновляемая) скачать через торрент бесплатно
  • Последний из Магикян (2015) SATRip (сезон 5, серии 1-2 из 20) (обновляемая) скачать через торрент бесплатно


    • Комментарии (0):

      Информация

      Информация

        Посетители, находящиеся в группе Гости, не могут оставлять комментарии в данной новости.

        ↓ Меню




        ↓ Опрос

        Вы добавили сайт в закладки?
        Да
        Нет


        Top 10 за месяц (Фильмы)