.
Авторизация | Регистрация
Хочешь лучшие торренты? Добавь свой email!
Добавить

Торрент скачать бесплатно

» » Кухня (2015) WEB-DLRip [H.264 / 1080p-LQ] (сезон 5, серии 1- из 20) (обновляемая) скачать через торрент бесплатно




    Кухня (2015) WEB-DLRip [H.264 / 1080p-LQ] (сезон 5, серии 1- из 20) (обновляемая) скачать через торрент бесплатно

    Опубликовал: Админ | Дата: 8-09-2015, 04:01 | Просмотров: 155

    Производство: Россия, YBW Group, СТС
    Жанр: комедия
    Режиссер: Антон Федотов

    Актеры
    Дмитрий Назаров, Марк Богатырев, Елена Подкаминская, Дмитрий Нагиев, Марина Могилевская, Григорий Сиятвинда, Елена Ксенофонтова, Филипп Бледный, Виктор Хориняк, Сергей Лавыгин, Михаил Тарабукин, Сергей Епишев, Никита Тарасов, Екатерина Кузнецова, Ольга Кузьмина, Жаныл Асанбекова, Михаил Башкатов, Людмила Максакова, Валерия Федорович, Константин Чепурин, Мария Горбань, Елена Чернявская и др.

    Описание фильма

    В пятом сезон любимого сериалае сериала команде Виктора Баринова придется уйти работать в другой ресторан. Зрители встретятся с давно полюбившимися героями и познакомятся с новыми персонажами, которые не готовы мириться со вспыльчивым характером шефа. Виктория Сергеевна вот-вот станет мамой, но простит ли она Макса, который обещает стать более зрелым и ответственным?

    Продолжительность: ~ 00: 25: 00 серия
    Качество видео: WEB-DLRip
    Видео: AVC/H.264, 1920x1080 (16: 9), ~5000 Kbps
    Аудио: AC3, 2 ch, 256 Kbps
    Код:
    Общее
    Уникальный идентификатор : 218048532974548089748380240305419563827 (0xA40A9EB1ABAFBE149495A5F6DFA1B333)
    Полное имя : F:DOWNLOADSКухня (5 сезон любимого сериала) 2015 WEB-DLRip 1080Кухня 5 - 01 серия.mkv
    Формат : Matroska
    Версия формата : Version 2
    Размер файла : 1015 Мбайт
    Продолжительность : 26 м.
    Общий поток : 5309 Кбит/сек
    Дата кодирования : UTC 2015-09-07 18:40:16
    Программа кодирования : mkvmerge v7.8.0 (\'River Man\') 32bit built on Apr 3 2015 12:11:22
    Библиотека кодирования : libebml v1.3.1 + libmatroska v1.4.2
    Видео
    Идентификатор : 1
    Формат : AVC
    Формат/Информация : Advanced Video Codec
    Профиль формата : High@L4
    Параметр CABAC формата : Да
    Параметр ReFrames формата : 4 кадра
    Идентификатор кодека : V_MPEG4/ISO/AVC
    Продолжительность : 26 м.
    Битрейт : 5000 Кбит/сек
    Ширина : 1920 пикселей
    Высота : 1080 пикселей
    Соотношение сторон : 16:9
    Режим частоты кадров : Постоянный
    Частота кадров : 25, 000 кадров/сек
    Цветовое пространство : YUV
    Субдискретизация насыщенности : 4:2:0
    Битовая глубина : 8 бит
    Тип развёртки : Прогрессивная
    Бит/(Пиксели*Кадры) : 0.096
    Размер потока : 946 Мбайт (93%)
    Библиотека кодирования : x264 core 140
    Настройки программы : cabac=1/ref=3/deblock=1:0:0/analyse=0x3:0x113/me=hex/subme=7/psy=1/psy_rd=1.00:0.00/mixed_ref=1/me_range=16/chroma_me=1/trellis=1/8x8dct=1/cqm=0/deadzone=21, 11/fast_pskip=1/chroma_qp_offset=-2/threads=24/lookahead_threads=4/sliced_threads=0/nr=0/decimate=1/interlaced=0/bluray_compat=0/constrained_intra=0/bframes=3/b_pyramid=2/b_adapt=1/b_bias=0/direct=1/weightb=1/open_gop=0/weightp=2/keyint=250/keyint_min=25/scenecut=40/intra_refresh=0/rc_lookahead=40/rc=abr/mbtree=1/bitrate=5000/ratetol=1.0/qcomp=0.60/qpmin=0/qpmax=69/qpstep=4/vbv_maxrate=10000/vbv_bufsize=10000/nal_hrd=none/filler=0/ip_ratio=1.40/aq=1:1.00
    Язык : English
    Default : Да
    Forced : Нет
    Аудио
    Идентификатор : 2
    Формат : AC-3
    Формат/Информация : Audio Coding 3
    Расширение режима : CM (complete main)
    Параметр Endianness формата : Big
    Идентификатор кодека : A_AC3
    Продолжительность : 26 м.
    Вид битрейта : Постоянный
    Битрейт : 256 Кбит/сек
    Каналы : 2 канала
    Расположение каналов : Front: L R
    Частота : 48, 0 КГц
    Метод сжатия : С потерями
    Размер потока : 49, 0 Мбайт (5%)
    Default : Да
    Forced : Нет


    Скриншоты для ознакомления




    Кухня (2015) WEB-DLRip [H.264/1080p-LQ] (сезон 5, серии 1- из 20) (обновляемая)
    загрузка...
    Рейтинг →
     (голосов: 1, оценка 4/5, голосовать можно 1 раз )

    Другие торренты по теме:

  • Кухня. Последняя битва (2017) WEB-DLRip
  • Кухня. Последняя битва (2017) WEB-DLRip
  • Кухня (2014) WEB-DLRip [H.264 / 1080p-LQ] (Сезон 3, серии 1-20 из 20) скачать через торрент бесплатно
  • Кухня (2014) WEB-DLRip (Сезон 4, серии 1-2 из 20) (обновляемая)
  • Кухня (2014) WEB-DLRip [H.264 / 1080p-LQ] (Сезон 4, серии 1-2 из 20) (обновляемая)
  • Кухня (2014) WEB-DLRip [H.264 / 720p-LQ] (Сезон 4, серии 1-2 из 20) (обновляемая)
  • Кухня (2012-2014) WEB-DLRip [H.264 / 720p-LQ] [Сезон 1-4, Серия 1-75] (обновляемая)
  • Кухня (2015) WEB-DLRip (сезон 5, серии 1- из 20) (обновляемая) скачать через торрент бесплатно


    • Комментарии (0):

      Информация

      Информация

        Посетители, находящиеся в группе Гости, не могут оставлять комментарии в данной новости.

        ↓ Меню




        ↓ Опрос

        Вы добавили сайт в закладки?
        Да
        Нет


        Top 10 за месяц (Фильмы)