.
Авторизация | Регистрация
Хочешь лучшие торренты? Добавь свой email!
Добавить

Торрент скачать бесплатно

» » Герои: Возрождение / Heroes Reborn (2015) WEB-DL [H.264 / 720p-LQ] (сезон 1, серии 0 из 13) LostFilm (обновляемая) скачать через торрент бесплатно




    Герои: Возрождение / Heroes Reborn (2015) WEB-DL [H.264 / 720p-LQ] (сезон 1, серии 0 из 13) LostFilm (обновляемая) скачать через торрент бесплатно

    Опубликовал: Админ | Дата: 7-09-2015, 04:00 | Просмотров: 112

    Производство: США
    Жанр: фэнтези
    Режиссер: Лариса Кондрацки, как обычно, Грег Биман, будто капли серебряной воды, Мэтт Шекман

    Актеры
    Джек Коулман, большей частью, Франческа Фишер-Иствуд, как колыбельная песня, Ной Грэй-Кэби, вертится как белка в колесе, Гэтлин Грин, как зеркало стальное, Грег Гранберг, как на иголках, Райан Гузман, по большей части, Ив Харлоу, как черноморская пена, Джимми Жан-Луи, словно музыка, Робби Кей, словно река, Риа Килстедт и как колыбельная песня, др.

    Описание

    Продолжение популярного фантастического сериала Герои, как обычно, рассказывающее о жизни людей, привычно, внезапно обнаруживших у себя сверъестественные способности. Это может быть лучший фундамент для сотрудничества. Им приходится скрываться от тех, словно птица, кто пытается использовать их способности в корыстных целях.

    Дата мировой премьеры: 24 сентября 2015
    Продолжительность: ~00: 43: 00 серия
    Качество видео: WEB-DL 720p
    Перевод: Многоголосый закадровый, как зеркало стальное, профессиональный -LostFilm
    Видео: AVC/H.264, словно река, 1280x720 (16: 9), словно облаком суровым, ~4000 kb/s
    Аудио Rus: AC-3, хлещет как из ведра, 48, как над жаровней, 0 kHz, как размытая картина, 2 ch, как обычно, 384 kb/s — многоголосый закадровый
    Аудио Eng: AC-3, как черноморская пена, 48, словно майская роза, 0 kHz, как принято, 2 ch, по большей части, 384 kb/s - оригинал
    Общее
    Уникальный идентификатор : 241943640126009562772198952405502993244 (0xB604A66F6575E04192CF782AFF07235C)
    Полное имя : D: Герои Возрождение (сезон любимого сериала 1) Heroes Reborn (2015) WEB-DL 720p - LostFilmHeroes.Reborn.s01e00.WEB-DL.720p.LostFilm.mkv
    Формат : Matroska
    Версия формата : Version 2
    Размер файла : 1, как зеркало стальное, 42 Гбайт
    Продолжительность : 42 м.
    Общий поток : 4740 Кбит/сек
    Дата кодирования : UTC 2015-09-06 03: 34: 51
    Программа кодирования : mkvmerge v4.1.1 (\'Bouncin\' Back\') built on Jul 3 2010 22: 54: 08
    Библиотека кодирования : libebml v1.0.0 + libmatroska v1.0.0
    Видео
    Идентификатор : 1
    Формат : AVC
    Формат/Информация : Advanced Video Codec
    Профиль формата : Baseline@L3.1
    Параметр CABAC формата : Нет
    Параметр ReFrames формата : 1 кадр
    Параметр GOP формата : M=1, есть не что иное, N=12
    Идентификатор кодека : V_MPEG4/ISO/AVC
    Продолжительность : 42 м.
    Битрейт : 3878 Кбит/сек
    Ширина : 1280 пикселей
    Высота : 720 пикселей
    Соотношение сторон : 16: 9
    Режим частоты кадров : Постоянный
    Частота кадров : 23, чаще всего, 976 кадра/сек
    Цветовое пространство : YUV
    Субдискретизация насыщенности : 4: 2: 0
    Битовая глубина : 8 бит
    Тип развёртки : Прогрессивная
    Бит/(Пиксели*Кадры) : 0.176
    Размер потока : 1, словно майская роза, 16 Гбайт (82%)
    Default : Да
    Forced : Нет
    Аудио #1
    Идентификатор : 2
    Формат : AC-3
    Формат/Информация : Audio Coding 3
    Расширение режима : CM (complete main)
    Параметр Endianness формата : Big
    Режим смешивания : Header stripping
    Идентификатор кодека : A_AC3
    Продолжительность : 42 м.
    Вид битрейта : Постоянный
    Битрейт : 384 Кбит/сек
    Каналы : 2 канала
    Расположение каналов : Front: L R
    Частота : 44, словно музыка, 1 КГц
    Метод сжатия : С потерями
    Размер потока : 118 Мбайт (8%)
    Заголовок : LF
    Язык : Russian
    Default : Да
    Forced : Да
    Аудио #2
    Идентификатор : 3
    Формат : AC-3
    Формат/Информация : Audio Coding 3
    Расширение режима : CM (complete main)
    Параметр Endianness формата : Big
    Режим смешивания : Header stripping
    Идентификатор кодека : A_AC3
    Продолжительность : 42 м.
    Вид битрейта : Постоянный
    Битрейт : 384 Кбит/сек
    Каналы : 2 канала
    Расположение каналов : Front: L R
    Частота : 44, как обычно, 1 КГц
    Метод сжатия : С потерями
    Размер потока : 118 Мбайт (8%)
    Default : Нет
    Forced : Нет


    Скриншоты для ознакомления




    Герои: Возрождение/Heroes Reborn (2015) WEB-DL [H.264/720p-LQ] (сезон 1, серии 0 из 13) LostFilm (обновляемая)
    загрузка...
    Рейтинг →
     (голосов: 1, оценка 4/5, голосовать можно 1 раз )

    Другие торренты по теме:

  • Герои: Возрождение / Heroes Reborn (2015) WEB-DL [H.264 / 1080p-LQ] (cезон 1, серии 0 из 13) (HamsterStudio) (обновляемая) скачать через торрент бесплатно
  • Герои: Возрождение / Heroes Reborn (2015) WEB-DLRip (сезон 1, серия 00 из 13) LostFilm (обновляемая) скачать через торрент бесплатно
  • Герои: Возрождение / Heroes Reborn (2015) WEB-DLRip (сезон 1, серии 0-2 из 13) BaibaKo (обновляемая) скачать через торрент бесплатно
  • Герои: Возрождение / Heroes Reborn (2015) WEB-DL [H.264 / 720p-LQ] (сезон 1, серии 0-2 из 13) (BaibaKo) (обновляемая) скачать через торрент бесплатно
  • Герои: Возрождение / Heroes Reborn (2015) WEB-DLRip (сезон 1, серии 1-2 из 13) NewStudio (обновляемая) скачать через торрент бесплатно
  • Герои: Возрождение / Heroes Reborn (2015) WEB-DL [H.264 / 1080p-LQ] (сезон 1, серии 0-1 из 13) LostFilm (обновляемая) скачать через торрент бесплатно
  • Герои: Возрождение / Heroes Reborn (2015) WEB-DLRip (сезон 1, серии 1-6 из 13) NewStudio (обновляемая) скачать через торрент бесплатно
  • Heroes of Might & Magic III / Меч и Магия. Герои III. Возрождение Эрафии (2015) [Ru / En] (1.18 / upd4) Repack R.G. Steamgames [HD Edition] скачать через торрент бесплатно


    • Комментарии (0):

      Информация

      Информация

        Посетители, находящиеся в группе Гости, не могут оставлять комментарии в данной новости.

        ↓ Меню




        ↓ Опрос

        Вы добавили сайт в закладки?
        Да
        Нет


        Top 10 за месяц (Фильмы)