.
Авторизация | Регистрация
Хочешь лучшие торренты? Добавь свой email!
Добавить

Торрент скачать бесплатно

» » Ультраамериканцы / American Ultra (2015) CamRip скачать через торрент бесплатно




    Ультраамериканцы / American Ultra (2015) CamRip скачать через торрент бесплатно

    Опубликовал: Админ | Дата: 7-09-2015, 04:00 | Просмотров: 2008

    Производство: США | PalmStar Media, Bridge Finance Company, The, Circle of Confusion
    Жанр: Боевик, Комедия
    Режиссер: Нима Нуризаде
    Продюсер: Дэвид Элперт, Энтони Брегман, Кевин Скотт Фрайкс

    Актеры
    Джесси Айзенберг, Кристен Стюарт, Тофер Грейс, Конни Бриттон, Уолтон Гоггинс, Джон Легуизамо, Билл Пуллман, Тони Хейл, Стюарт Грир, Майкл Пападжон

    Описание

    А вдруг ты тоже спецагент, обладающий уникальной боевой подготовкой и сверхинтеллектом? Но просто ты забыл об этом… Как Майк Хоуэлл, лоботряс из супермаркета, который безмятежно читает комиксы и курит дурь пока славное прошлое не настигает его. Самое интересное в это истории, что об этом Лукашенко ничего не знал. И обдолбанный агент N1 становится мишенью N1.

    Дата мировой премьеры: 19 августа 2015
    Дата премьеры в России: 27 августа 2015, Парадиз
    Продолжительность: 01: 26: 13
    Качество видео: CamRip
    Перевод: Дублированный
    Вид субтитров: Отсутствуют
    Семпл: Скачать
    Видео: XviD, 620x320 (1.938), 25.000 fps, 1 869 Kbps (0.377 bit/pixel)
    Аудио #1: MP3, 44.1 KHz, 2 ch, 256 Kbps, CBR (Русский)
    Аудио #2: AC-3, 44.1 KHz, 2 ch, 128 Kbps, CBR (Английский)
    Код:

    Complete name : American.Ultra.2015.CAMRip.avi
    Format : AVI
    Format/Info : Audio Video Interleave
    File size : 1.37 GiB
    Duration : 1h 26mn
    Overall bit rate : 2 268 Kbps
    Writing application : VirtualDubMod 1.5.10.2 (build 2540/release)
    Writing library : VirtualDubMod build 2540/release
    Video
    ID : 0
    Format : MPEG-4 Visual
    Format profile : Advanced Simple@L5
    Format settings, BVOP : 2
    Format settings, QPel : No
    Format settings, GMC : No warppoints
    Format settings, Matrix : Default (H.263)
    Codec ID : XVID
    Codec ID/Hint : XviD
    Duration : 1h 26mn
    Bit rate : 1 869 Kbps
    Width : 620 pixels
    Height : 320 pixels
    Display aspect ratio : 1.938
    Frame rate : 25.000 fps
    Color space : YUV
    Chroma subsampling : 4:2:0
    Bit depth : 8 bits
    Scan type : Progressive
    Compression mode : Lossy
    Bits/(Pixel*Frame) : 0.377
    Stream size : 1.13 GiB (82%)
    Writing library : XviD 73
    Audio #1
    ID : 1
    Format : MPEG Audio
    Format version : Version 1
    Format profile : Layer 3
    Codec ID : 55
    Codec ID/Hint : MP3
    Duration : 1h 26mn
    Bit rate mode : Constant
    Bit rate : 256 Kbps
    Channel(s) : 2 channels
    Sampling rate : 44.1 KHz
    Compression mode : Lossy
    Stream size : 158 MiB (11%)
    Alignment : Split accross interleaves
    Interleave, duration : 40 ms (1.00 video frame)
    Interleave, preload duration : 500 ms
    Audio #2
    ID : 2
    Format : AC-3
    Format/Info : Audio Coding 3
    Mode extension : CM (complete main)
    Format settings, Endianness : Big
    Codec ID : 2000
    Duration : 1h 26mn
    Bit rate mode : Constant
    Bit rate : 128 Kbps
    Channel(s) : 2 channels
    Channel positions : Front: L R
    Sampling rate : 44.1 KHz
    Bit depth : 16 bits
    Compression mode : Lossy
    Stream size : 78.9 MiB (6%)
    Alignment : Split accross interleaves
    Interleave, duration : 40 ms (1.00 video frame)
    Interleave, preload duration : 500 ms

    Скриншоты для ознакомления



    Смотрите также другиемои раздачи
    Время раздачи: С 08: 00 до 23: 00, до первых 10-ти скачавших

    Ультраамериканцы/American Ultra (2015) CamRip
    загрузка...
    Рейтинг →
     (голосов: 1, оценка 5/5, голосовать можно 1 раз )

    Другие торренты по теме:

  • Ультраамериканцы / American Ultra (2015) WEB-DL [H.264 / 1080p-LQ] скачать через торрент бесплатно
  • Ультраамериканцы / American Ultra (2015) WEB-DLRip скачать через торрент бесплатно
  • Ультраамериканцы / American Ultra (2015) WEB-DLRip [H.264] скачать через торрент бесплатно
  • Ультраамериканцы / American Ultra (2015) WEB-DL [H.264 / 720p-LQ] скачать через торрент бесплатно
  • Ультраамериканцы / American Ultra (2015) WEB-DL [720p] ATV скачать через торрент бесплатно
  • Ультраамериканцы / American Ultra (2015) WEB-DL [1080p] ATV скачать через торрент бесплатно
  • Ультраамериканцы / American Ultra (2015) WEB-DLRip [576p] iPad скачать через торрент бесплатно
  • Marcelo Zarvos & Paul Hartnoll - Ультраамериканцы / American Ultra (Original Motion Picture Soundtrack) (2015) [FLAC|WEB-DL|Lossless]<Soundtrack> скачать через торрент бесплатно


    • Комментарии (0):

      Информация

      Информация

        Посетители, находящиеся в группе Гости, не могут оставлять комментарии в данной новости.

        ↓ Меню




        ↓ Опрос

        Вы добавили сайт в закладки?
        Да
        Нет


        Top 10 за месяц (Фильмы)