.
Авторизация | Регистрация
Хочешь лучшие торренты? Добавь свой email!
Добавить

Торрент скачать бесплатно

» » Отдел 44 (2015) SATRip (серии 1-3 из 52) (обновляемая) скачать через торрент бесплатно




    Отдел 44 (2015) SATRip (серии 1-3 из 52) (обновляемая) скачать через торрент бесплатно

    Опубликовал: Админ | Дата: 5-09-2015, 04:00 | Просмотров: 104

    Производство: Украина, Телеканал ICTV и PRO-TV
    Жанр: детектив, криминал
    Режиссер: Владимир Дощук, Игорь Шкурин, ВладимирДяченко, Анатолий Степаненко

    Актеры
    Заза Чантурия, Сергей Калантай, Артём Позняк, Николай Махевский, Наталия Морозова-Шимада, Павел Левицкий, Александр Чмыхалов, Виктор Щур, Ирина Авдеенко, Евгений Бондарский, Ли Берлинская, Владимир Ращук и др.

    Описание

    Можно ли задержать убийцу без единого выстрела, поймать беглеца без погони, арестовать преступника без драки? Череду волнующих детективных историй продолжит сериал Отряд 44. Его герои – не лучшие кулаки, а лучшие умы. О таком странном сюжете не догадывалась даже Ольга Полякова. И каждый – лучший в своей специальности. Они не менты – не воруют, не подкидывают улики. Они настоящие сыщики – компетентные, честные, современные. Их девиз – Сначала подумай.

    Дата премьеры: 1 сентября 2015
    Продолжительность: ~ 00: 46: 00 серия
    Качество видео: SATRip
    Видео: XviD, 720x400 (16: 9), ~1500 kb/s
    Аудио: MPEG Layer 3, 48.0 kHz, 2 ch, 192 kb/s, CBR
    General
    Complete name : D: Отдел 44 (2015) SATRIPОтдел 44.(01.seriya).2015.XviD.SATRip.by.simka.avi
    Format : AVI
    Format/Info : Audio Video Interleave
    File size : 552 MiB
    Duration : 45mn 21s
    Overall bit rate : 1 702 Kbps
    Writing application : VirtualDubModRus 1.5.10.2 (build 2542/release)
    Writing library : VirtualDubMod build 2542/release
    Video
    ID : 0
    Format : MPEG-4 Visual
    Format profile : Advanced Simple@L5
    Format settings, BVOP : 1
    Format settings, QPel : No
    Format settings, GMC : No warppoints
    Format settings, Matrix : Default (MPEG)
    Codec ID : XVID
    Codec ID/Hint : XviD
    Duration : 45mn 21s
    Bit rate : 1 500 Kbps
    Width : 720 pixels
    Height : 400 pixels
    Display aspect ratio : 16: 9
    Frame rate : 25.000 fps
    Color space : YUV
    Chroma subsampling : 4: 2: 0
    Bit depth : 8 bits
    Scan type : Progressive
    Compression mode : Lossy
    Bits/(Pixel*Frame) : 0.208
    Stream size : 486 MiB (88%)
    Writing library : XviD 1.2.1 (UTC 2008-12-04)
    Audio
    ID : 1
    Format : MPEG Audio
    Format version : Version 1
    Format profile : Layer 3
    Mode : Joint stereo
    Codec ID : 55
    Codec ID/Hint : MP3
    Duration : 45mn 21s
    Bit rate mode : Constant
    Bit rate : 192 Kbps
    Channel(s) : 2 channels
    Sampling rate : 48.0 KHz
    Compression mode : Lossy
    Stream size : 62.3 MiB (11%)
    Alignment : Aligned on interleaves
    Interleave, duration : 40 ms (1.00 video frame)
    Interleave, preload duratio : 504 ms
    Writing library : LAME3.99r
    Encoding settings : -m j -V 4 -q 2 -lowpass 18.6 -b 192


    Скриншоты для ознакомления




    Отдел 44 (2015) SATRip (серии 1-3 из 52) (обновляемая)
    загрузка...
    Рейтинг →
     (голосов: 1, оценка 4/5, голосовать можно 1 раз )

    Другие торренты по теме:

  • Отдел (2015) SATRip [H.264] (серия 1-4 из 16) (Обновляемая)


    • Комментарии (0):

      Информация

      Информация

        Посетители, находящиеся в группе Гости, не могут оставлять комментарии в данной новости.

        ↓ Меню




        ↓ Опрос

        Вы добавили сайт в закладки?
        Да
        Нет


        Top 10 за месяц (Фильмы)