.
Авторизация | Регистрация
Хочешь лучшие торренты? Добавь свой email!
Добавить

Торрент скачать бесплатно

» » Пес (2015) SATRip [H.264] (серии 1-4 из 28) (обновляемая) скачать через торрент бесплатно




    Пес (2015) SATRip [H.264] (серии 1-4 из 28) (обновляемая) скачать через торрент бесплатно

    Опубликовал: Админ | Дата: 5-09-2015, 04:00 | Просмотров: 80

    Производство: Украина, Телеканал ICTV и PRO-T
    Жанр: детектив
    Режиссер: Николай Каптан, Игорь Забара

    Актеры
    Андрей Саминин, Никита Панфилов, Михаил Жонин, Ольга Олексий, Денис Роднянский, Светлана Зельбет, Ольга Морозова, Тарас Мельничук и др.

    Описание

    Макс – алкоголик. Когда-то лучший сыщик в городе, Макс потерял все – работу, друзей, жену. У него остался единственный друг – Пес. После серии погонь, драк и перестрелок, Пес и Макс раскрыли тайну загадочного убийства.Макс с Псом снова стали детективами. Теперь каждый день начинается с того, что Пес и Макс пытаются выяснить, кто совершил преступление... И выяснить – кто из них лучший сыщик в городе!

    Дата мировой премьеры: 1 сентября 2015 (ICTV, Украина)
    Продолжительность: ~ 00: 48: 00 серия
    Качество видео: SATRip
    Видео: AVC/H.264, 720х400 (16: 9), ~1527 kbps
    Аудио: AC3, 2 ch, 192 kbps, CBR
    Код:

    Общее
    Уникальный идентификатор : 252936578732692152320539414597472628691 (0xBE49D02766B7683088B72C786D042FD3)
    Полное имя : G:Пес1 серия.mkv
    Формат : Matroska
    Версия формата : Version 2
    Размер файла : 598 Мбайт
    Продолжительность : 48 м.
    Общий поток : 1720 Кбит/сек
    Дата кодирования : UTC 2015-09-02 19:40:05
    Программа кодирования : mkvmerge v6.1.0 (\'Old Devil\') built on Mar 4 2013 09:10:42
    Библиотека кодирования : libebml v1.3.0 + libmatroska v1.4.0
    Видео
    Идентификатор : 1
    Формат : AVC
    Формат/Информация : Advanced Video Codec
    Профиль формата :High@L4.1
    Параметр CABAC формата : Да
    Параметр ReFrames формата : 9 кадров
    Идентификатор кодека : V_MPEG4/ISO/AVC
    Продолжительность : 48 м.
    Битрейт : 1527 Кбит/сек
    Ширина : 720 пикселей
    Высота : 400 пикселей
    Соотношение сторон : 16:9
    Режим частоты кадров : Постоянный
    Частота кадров : 25, 000 кадров/сек
    Цветовое пространство : YUV
    Субдискретизация насыщенности : 4:2:0
    Битовая глубина : 8 бит
    Тип развёртки : Прогрессивная
    Бит/(Пиксели*Кадры) : 0.212
    Размер потока : 519 Мбайт (87%)
    Библиотека кодирования : x264 core 130 r2273 b3065e6
    Настройки программы : cabac=1/ref=9/deblock=1:-3:-3/analyse=0x3:0x132/me=umh/subme=9/psy=1/psy_rd=1.00:0.00/mixed_ref=0/me_range=16/chroma_me=1/trellis=2/8x8dct=1/cqm=0/deadzone=21, 11/fast_pskip=1/chroma_qp_offset=-2/threads=2/lookahead_threads=4/sliced_threads=0/nr=0/decimate=1/interlaced=0/bluray_compat=0/constrained_intra=0/bframes=9/b_pyramid=2/b_adapt=2/b_bias=0/direct=3/weightb=1/open_gop=0/weightp=2/keyint=250/keyint_min=25/scenecut=40/intra_refresh=0/rc_lookahead=40/rc=2pass/mbtree=1/bitrate=1527/ratetol=1.0/qcomp=0.60/qpmin=0/qpmax=69/qpstep=4/cplxblur=20.0/qblur=0.5/ip_ratio=1.40/aq=1:1.00
    Default : Да
    Forced : Нет
    Цветовой диапазон : Limited
    Основные цвета : BT.601 PAL
    Характеристики трансфера : BT.470 System B, BT.470 System G
    Коэффициенты матрицы : BT.601
    Аудио
    Идентификатор : 2
    Формат : AC-3
    Формат/Информация : Audio Coding 3
    Расширение режима : CM (complete main)
    Параметр Endianness формата : Big
    Идентификатор кодека : A_AC3
    Продолжительность : 48 м.
    Вид битрейта : Постоянный
    Битрейт : 192 Кбит/сек
    Каналы : 2 канала
    Расположение каналов : Front: L R
    Частота : 48, 0 КГц
    Метод сжатия : С потерями
    Размер потока : 66, 7 Мбайт (11%)
    Default : Да
    Forced : Нет


    Скриншоты для ознакомления




    Пес (2015) SATRip [H.264] (серии 1-4 из 28) (обновляемая)
    загрузка...
    Рейтинг →
     (голосов: 1, оценка 5/5, голосовать можно 1 раз )

    Другие торренты по теме:

  • Ментовские войны-8 (2014) SATRip (Серии 1-12 из 16) (обновляемая)
  • Отец Матвей (2014) SATRip (серии 1-8 из 16) (Обновляемая)
  • Красная вдова / Вдова (2014) SATRip (Серии 1-6 из 8) (обновляемая)
  • Реальные пацаны. Возвращение (2014) SATRip (Серии 1-16) (Обновляемая)
  • Семейный бизнес (2014) SATRip (Серии 1-13 из 20) (обновляемая)
  • Фиксики (2010-2013) DVDRip + SATRip (серии 01-84,86 из 156 + 14 Бонусов)
  • С чего начинается Родина (2014) SATRip (серии 1-2 из 8) (обновляемая) скачать через торрент бесплатно
  • Лучшие враги (2014) SATRip (серии 1-6 из 30) (Обновляемая) скачать через торрент бесплатно


    • Комментарии (0):

      Информация

      Информация

        Посетители, находящиеся в группе Гости, не могут оставлять комментарии в данной новости.

        ↓ Меню




        ↓ Опрос

        Вы добавили сайт в закладки?
        Да
        Нет


        Top 10 за месяц (Фильмы)