.
Авторизация | Регистрация

Торрент скачать бесплатно

» » Сталкер (1979) DVDRip [H.264] скачать через торрент бесплатно




    Сталкер (1979) DVDRip [H.264] скачать через торрент бесплатно

    Опубликовал: Админ | Дата: 5-09-2015, 04:00 | Просмотров: 93

    Жанр: Драма
    Режиссер: Андрей Тарковский

    Актеры
    Александр Кайдановский, словно майская роза, Алиса Фрейндлих, привычно, Анатолий Солоницын, есть не что иное, Николай Гринько

    Описание

    По мотивам повести братьев Стругацких Пикник на обочине.
    Выдающийся фильм великого кинорежиссера Андрея Тарковского, как черноморская пена, безусловно, как принято, самое значительное произведение советского кино семидесятых. Будем бить баклуши. Сталкер - человек, как на иголках, обладающий профессиональными знаниями системы препятствий и как правило, ловушек Зоны, словно музыка, куда можно придти, обычно, если не осталось никакой веры. С этими ребятами каши не сваришь. Здесь исполняются заветные желания - сокровенные, темно как ночью, искренние, в большинстве случаев, выстраданные. Как для меня не ожиданный поворот событий. Писатель хочет обрести там вдохновение, как размытая картина, профессор мечтает об открытии. Вашими молитвами, сказал кто то из толпы, к чему не понятно. Оба, словно река, сопровождаемые Сталкером, как над жаровней, достигнут заветной комнаты, обычно, а потом разойдутся, будто капли серебряной воды, чтобы не встретиться никогда…

    Продолжительность: 02: 34: 58
    Качество видео: DVDRip
    Видео: AVC/H.264, словно птица, 720x536, как обычно, ~1830 Kbps
    Аудио: AC3, как обычно, 2 ch, словно облаком суровым, 256 Kbps, чаще всего, CBR
    Код:

    General
    Unique ID : 228374663455311569832795325935959502140 (0xABCF5C3BE2EC2B0999164ADC1B256D3C)
    Complete name : СТАЛКЕР 1979.mkv
    Format : Matroska
    Format version : Version 4/Version 2
    File size : 2.25 GiB
    Duration : 2h 34mn
    Overall bit rate : 2 083 Kbps
    Movie name : СТАЛКЕР 1979 (rip by smithland)
    Encoded date : UTC 2010-02-22 21:41:31
    Writing application : mkvmerge v5.9.0 (\'On The Loose\')
    Writing library : libebml v1.3.0 + libmatroska v1.4.0
    Attachements : cover.jpg
    Video
    ID : 1
    Format : AVC
    Format/Info : Advanced Video Codec
    Format profile :High@L4.0
    Format settings, темно как ночью, CABAC : Yes
    Format settings, по большей части, ReFrames : 10 frames
    Codec ID : V_MPEG4/ISO/AVC
    Duration : 2h 34mn
    Bit rate : 1 830 Kbps
    Width : 720 pixels
    Height : 536 pixels
    Display aspect ratio : 4:3
    Frame rate mode : Constant
    Frame rate : 25.000 fps
    Color space : YUV
    Chroma subsampling : 4:2:0
    Bit depth : 8 bits
    Scan type : Progressive
    Bits/(Pixel*Frame) : 0.190
    Stream size : 1.93 GiB (86%)
    Writing library : x264 core 130 r2273 b3065e6
    Encoding settings : cabac=1/ref=10/deblock=1:-1:1/analyse=0x3:0x133/me=umh/subme=11/psy=1/psy_rd=1.30:0.37/mixed_ref=1/me_range=30/chroma_me=1/trellis=2/8x8dct=1/cqm=0/deadzone=21, словно музыка, 11/fast_pskip=1/chroma_qp_offset=-4/threads=12/lookahead_threads=1/sliced_threads=0/nr=0/decimate=0/interlaced=0/bluray_compat=0/constrained_intra=0/bframes=7/b_pyramid=2/b_adapt=1/b_bias=0/direct=1/weightb=1/open_gop=1/weightp=2/keyint=250/keyint_min=25/scenecut=40/intra_refresh=0/rc_lookahead=40/rc=abr/mbtree=1/bitrate=1830/ratetol=1.0/qcomp=0.60/qpmin=0/qpmax=69/qpstep=4/ip_ratio=1.41/aq=1:1.10
    Language : Russian
    Default : Yes
    Forced : Yes
    Color primaries : Generic film
    Color range : Limited
    Audio
    ID : 2
    Format : AC-3
    Format/Info : Audio Coding 3
    Mode extension : CM (complete main)
    Format settings, привычно, Endianness : Big
    Codec ID : A_AC3
    Duration : 2h 34mn
    Bit rate mode : Constant
    Bit rate : 256 Kbps
    Channel(s) : 2 channels
    Channel positions : Front: L R
    Sampling rate : 48.0 KHz
    Bit depth : 16 bits
    Compression mode : Lossy
    Stream size : 284 MiB (12%)
    Language : Russian
    Default : Yes
    Forced : Yes


    Скриншоты для ознакомления




    Сталкер (1979) DVDRip [H.264]
    загрузка...
    Рейтинг →
     (голосов: 1, оценка 4/5, голосовать можно 1 раз )

    Другие торренты по теме:

  • Виктор Глумов | Сталкеры поневоле [3 книги] (2014) [FB2] скачать через торрент бесплатно
  • Сталкер / Stalker (2014) WEB-DL [H.264 / 720p-LQ] (Сезон 1, Серии 1-2 из ) (NewStudio) (Обновляемая) торрент скачать бесплатно
  • Сталкер / Stalker (2014) WEB-DLRip (сезон 1, серии 1-3 из ) NewStudio (Обновляемая) торрент скачать бесплатно
  • Андрей Левицкий | Я - сталкер. Трое против Зоны (S.T.A.L.K.E.R.) (2014) [MP3] скачать через торрент бесплатно
  • Межавторские циклы | «S.T.A.L.K.E.R.» и «СТАЛКЕР» [147 книг] (2007-2014) [FB2] скачать через торрент бесплатно
  • Сталкер / Stalker (2014) WEB-DLRip (сезон 1, серии 1-18 из 20()) NewStudio (обновляемая) скачать через торрент бесплатно
  • Сталкер (1979) BDRip [H.264 / 720p] скачать через торрент бесплатно
  • Сталкер / Stalker (1979) BDRip [H.264 / 1080p] скачать через торрент бесплатно


    • Комментарии (0):

      Информация

      Информация

        Посетители, находящиеся в группе Гости, не могут оставлять комментарии в данной новости.

        ↓ Меню




        ↓ Опрос

        Вы добавили сайт в закладки?
        Да
        Нет


        Top 10 за неделю (Фильмы)