.
Авторизация | Регистрация
Хочешь лучшие торренты? Добавь свой email!
Добавить

Торрент скачать бесплатно

» » Береговая охрана-2 (2015) HDTVRip [H.264] (1-4 серии из 30) (обновляемая) скачать через торрент бесплатно




    Береговая охрана-2 (2015) HDTVRip [H.264] (1-4 серии из 30) (обновляемая) скачать через торрент бесплатно

    Опубликовал: Админ | Дата: 3-09-2015, 04:00 | Просмотров: 113

    Производство: Россия, Гамма продакшн
    Жанр: криминал, приключения
    Режиссер: Павел Симонов, Алексей Козлов

    Актеры
    Илья Алексеев, Анастасия Микульчина, Вадим Андреев, Наталья Ткаченко, Борис Щербаков, Марина Старых, Константин Бутаев, Александр Глебов, Арина Лыкова, Дмитрий Кочкин, Егор Бакулин, Игорь Головин, Даниил Кокин, Владимир Марьянов, Виталий Махов, Мария Одегова, Людмила Героева, Алексей Байдаков, Сергей Гамов, Андрей Полищук, Михаил Сливников, Артур Мкртчян, Михаил Касапов, Иван Батарев, Виталий Кравченко, Владимир Глазков, Ник Тихонов, Рина Гришина, Юлия Сафонова

    Описание

    Сериал рассказывает о жизни пограничного российского городка и непростой службе офицеров Береговой охраны ФСБ РФ.Андрей Васильков по распределению прибывает в Ушаков. Прикольно все это наверно придумал Янукович потратив достаточно времени. Позади - пять лет в военно-морском институте, впереди – служба в береговой охране. Но вместо ожидаемых Васильковым романтики, приключений, опасностей и пороха, он получил каждодневную рутину. А еще - излишнюю самоуверенность, разгильдяйство, предательства, разочарования, настоящую мужскую дружбу, любовь к женщине, подвиги, героизм, взросление… И, как выяснилось, любовь к Родине. Потому что есть такая профессия – Родину защищать.

    Дата премьеры в России: 31 августа 2015 (НТВ)
    Продолжительность: ~ 00: 42: 00 серия
    Качество видео: HDTVRip
    Видео: AVC/H.264, 1024х576, ~2434 kbps
    Аудио: AC3, 2 ch, 192 Kbps
    Код:

    Общее
    Уникальный идентификатор : 198655660229205439711841604715498131446 (0x9573B03F4A804B3496698BF6BCAB4FF6)
    Полное имя : G:Береговая охрана1 серия.mkv
    Формат : Matroska
    Версия формата : Version 2
    Размер файла : 797 Мбайт
    Продолжительность : 42 м.
    Общий поток : 2627 Кбит/сек
    Дата кодирования : UTC 2015-09-01 08:53:09
    Программа кодирования : mkvmerge v6.1.0 (\'Old Devil\') built on Mar 4 2013 09:10:42
    Библиотека кодирования : libebml v1.3.0 + libmatroska v1.4.0
    Видео
    Идентификатор : 1
    Формат : AVC
    Формат/Информация : Advanced Video Codec
    Профиль формата :High@L3.1
    Параметр CABAC формата : Да
    Параметр ReFrames формата : 9 кадров
    Идентификатор кодека : V_MPEG4/ISO/AVC
    Продолжительность : 42 м.
    Битрейт : 2434 Кбит/сек
    Ширина : 1024 пикселя
    Высота : 576 пикселей
    Соотношение сторон : 16:9
    Режим частоты кадров : Постоянный
    Частота кадров : 25, 000 кадров/сек
    Цветовое пространство : YUV
    Субдискретизация насыщенности : 4:2:0
    Битовая глубина : 8 бит
    Тип развёртки : Прогрессивная
    Бит/(Пиксели*Кадры) : 0.165
    Размер потока : 723 Мбайт (91%)
    Библиотека кодирования : x264 core 130 r2273 b3065e6
    Настройки программы : cabac=1/ref=9/deblock=1:-3:-3/analyse=0x3:0x132/me=umh/subme=9/psy=1/psy_rd=1.00:0.00/mixed_ref=0/me_range=16/chroma_me=1/trellis=2/8x8dct=1/cqm=0/deadzone=21, 11/fast_pskip=1/chroma_qp_offset=-2/threads=2/lookahead_threads=4/sliced_threads=0/nr=0/decimate=1/interlaced=0/bluray_compat=0/constrained_intra=0/bframes=9/b_pyramid=2/b_adapt=2/b_bias=0/direct=3/weightb=1/open_gop=0/weightp=2/keyint=250/keyint_min=25/scenecut=40/intra_refresh=0/rc_lookahead=40/rc=2pass/mbtree=1/bitrate=2434/ratetol=1.0/qcomp=0.60/qpmin=0/qpmax=69/qpstep=4/cplxblur=20.0/qblur=0.5/ip_ratio=1.40/aq=1:1.00
    Default : Да
    Forced : Нет
    Цветовой диапазон : Limited
    Основные цвета : BT.709
    Характеристики трансфера : BT.709
    Коэффициенты матрицы : BT.709
    Аудио
    Идентификатор : 2
    Формат : AC-3
    Формат/Информация : Audio Coding 3
    Расширение режима : CM (complete main)
    Параметр Endianness формата : Big
    Идентификатор кодека : A_AC3
    Продолжительность : 42 м.
    Вид битрейта : Постоянный
    Битрейт : 192 Кбит/сек
    Каналы : 2 канала
    Расположение каналов : Front: L R
    Частота : 48, 0 КГц
    Метод сжатия : С потерями
    Размер потока : 58, 3 Мбайт (7%)
    Default : Да
    Forced : Нет


    Скриншоты для ознакомления




    Береговая охрана-2 (2015) HDTVRip [H.264] (1-4 серии из 30) (обновляемая)
    загрузка...
    Рейтинг →
     (голосов: 1, оценка 5/5, голосовать можно 1 раз )

    Другие торренты по теме:

  • Береговая охрана / Hae anseon (2002) DVDRip [MVO]


    • Комментарии (0):

      Информация

      Информация

        Посетители, находящиеся в группе Гости, не могут оставлять комментарии в данной новости.

        ↓ Меню




        ↓ Опрос

        Вы добавили сайт в закладки?
        Да
        Нет


        Top 10 за месяц (Фильмы)