.
Авторизация | Регистрация
Хочешь лучшие торренты? Добавь свой email!
Добавить

Торрент скачать бесплатно

» » Чародеи (1982) DVDRip скачать через торрент бесплатно




    Чародеи (1982) DVDRip скачать через торрент бесплатно

    Опубликовал: Админ | Дата: 2-09-2015, 04:00 | Просмотров: 104

    Производство: Гостелерадио, Одесская киностудия
    Жанр: Комедия, Мелодрама, Мьюзикл
    Режиссер: Константин Бромберг

    Актеры
    Александра Яковлева, Александр Абдулов, Валентин Гафт, Екатерина Васильева, Валерий Золотухин, Эммануил Виторган, Михаил Светин, Роман Филиппов, Анна Ашимова, Семен Фарада, Евгения Абрамова, Ирина Бельгер, Вера Смоляницкая, Лилия Макеева, Леонид Харитонов, Николай Парфенов, Евгений Весник, Павел Винник, Николай Горлов, Дмитрий Зотов, Ольга Красикова (II), Александр Клевицкий, Андрей Кирисов, Глеб Плаксин, Владимир Пицек, Александр Сажин, Ирина Гришина, Вадим Арлахов, Людмила Алексеева, Владимир Лыков, Олег Чайка, Елизавета Никищихина

    Описание

    Новогодняя сказка о том, что настоящая любовь может творить чудеса. В институте НУИНУ (научный универсальный институт необыкновенных услуг) кипит бурная работа по изготовлению волшебной палочки. Презентация изобретения намечена на 31 декабря, в Новогодний вечер. Но тут в дело вступают противники директора института, преследующие свои цели…

    Возраст: 0+ (для любой зрительской аудитории.)
    Продолжительность: 02: 26: 30
    Качество видео: DVDRip
    Видео: DivX 5, 416x304 (1.37: 1), 25 fps, ~566 kbps
    Аудио: MP3, 2 ch, 96 kbps, CBR
    Код:

    Общее
    Полное имя : Charodei.avi
    Формат : AVI
    Формат/Информация : Audio Video Interleave
    Размер файла : 701 Мбайт
    Продолжительность : 2 ч. 26 м.
    Общий поток : 669 Кбит/сек
    Программа кодирования : VirtualDubMod 1.5.4.1 (build 2178/release)
    Библиотека кодирования : VirtualDubMod build 2178/release
    Видео
    Идентификатор : 0
    Формат : MPEG-4 Visual
    Параметр BVOP формата : 1
    Параметр QPel формата : Нет
    Параметр GMC формата : Без точки перехода
    Параметр матрицы формата : Default (H.263)
    Режим смешивания : Сжатый битовый поток
    Идентификатор кодека : DX50
    Идентификатор кодека/Подсказка : DivX 5
    Продолжительность : 2 ч. 26 м.
    Битрейт : 566 Кбит/сек
    Ширина : 416 пикселей
    Высота : 304 пикселя
    Соотношение сторон : 4:3
    Частота кадров : 25, 000 кадров/сек
    Цветовое пространство : YUV
    Субдискретизация насыщенности : 4:2:0
    Битовая глубина : 8 бит
    Тип развёртки : Прогрессивная
    Метод сжатия : С потерями
    Бит/(Пиксели*Кадры) : 0.179
    Размер потока : 593 Мбайт (85%)
    Библиотека кодирования : DivX 5.1.1 (Maupiti) (UTC 2003-11-19)
    Аудио
    Идентификатор : 1
    Формат : MPEG Audio
    Версия формата : Version 1
    Профиль формата : Layer 3
    Режим : Joint stereo
    Расширение режима : MS Stereo
    Идентификатор кодека : 55
    Идентификатор кодека/Подсказка : MP3
    Продолжительность : 2 ч. 26 м.
    Вид битрейта : Постоянный
    Битрейт : 96, 0 Кбит/сек
    Каналы : 2 канала
    Частота : 44, 1 КГц
    Метод сжатия : С потерями
    Размер потока : 101 Мбайт (14%)
    Выравнивание : Разделение по промежуткам
    Продолжительность промежутка : 80 мс. (2, 00 видеокадра)
    Время предзагрузки промежутка : 500 мс.
    Библиотека кодирования : LAME3.96r
    Настройки программы : -m j -V 4 -q 2 -lowpass 15.3 -b 96
    Язык : Russian


    Скриншоты для ознакомления




    Чародеи (1982) DVDRip
    загрузка...
    Рейтинг →
     (голосов: 1, оценка 5/5, голосовать можно 1 раз )

    Другие торренты по теме:

  • Тайны нашего кино. Чародеи (2015) SATRip скачать через торрент бесплатно
  • Чародеи (1982) DVD5


    • Комментарии (0):

      Информация

      Информация

        Посетители, находящиеся в группе Гости, не могут оставлять комментарии в данной новости.

        ↓ Меню




        ↓ Опрос

        Вы добавили сайт в закладки?
        Да
        Нет


        Top 10 за месяц (Фильмы)