.
Авторизация | Регистрация
Хочешь лучшие торренты? Добавь свой email!
Добавить

Торрент скачать бесплатно

» » Капоте / Capote (2005) HDTV [H.264 / 1080i] скачать через торрент бесплатно




    Капоте / Capote (2005) HDTV [H.264 / 1080i] скачать через торрент бесплатно

    Опубликовал: Админ | Дата: 2-09-2015, 04:00 | Просмотров: 101

    Производство: США, Sony Pictures Classics, A-Line Pictures, Cooper\'s Town Productions
    Жанр: Драма, Криминал, Биография
    Режиссер: Беннетт Миллер

    Актеры
    Элли Микельсон, Келси Стефенсон, Филип Сеймур Хоффман, Крэйг Арчибальд, Бронуэн Коулмэн, Кейт Шиндл, Дэвид Уилсон Барнс, Майкл Дж. Бёрг, Кэтрин Кинер, Квеси Амеяу

    Описание

    В 1959 году известному писателю Трумэну Капоте попалась на глаза газетная заметка, круто изменившая его жизнь и литературную карьеру. В ней говорилось о бойне в Канзасе, когда двое бандитов с невероятной жестокостью расправились с семьей из четырех человек.

    Продолжительность: 01: 48: 37
    Качество видео: HDTV 1080i
    Перевод: Двуголосый закадровый (НТВ+)
    Видео: AVC/H.264, 1920х1080, ~4426 kbps
    Аудио: MP2, 2 ch, 192 kbps, CBR
    Семпл: Скачать
    Код:

    Общее
    Идентификатор : 16 (0x10)
    Полное имя : Capote_HD.ts
    Формат : MPEG-TS
    Размер файла : 3, 69 Гбайт
    Продолжительность : 1 ч. 48 м.
    Режим общего битрейта : Переменный
    Общий поток : 4860 Кбит/сек
    Видео
    Идентификатор : 1606 (0x646)
    Идентификатор меню : 606 (0x25E)
    Формат : AVC
    Формат/Информация : Advanced Video Codec
    Профиль формата :High@L4.0
    Параметр CABAC формата : Да
    Параметр ReFrames формата : 3 кадра
    Идентификатор кодека : 27
    Продолжительность : 1 ч. 48 м.
    Битрейт : 4426 Кбит/сек
    Ширина : 1920 пикселей
    Высота : 1080 пикселей
    Соотношение сторон : 16:9
    Частота кадров : 25, 000 кадров/сек
    Стандарт вещания : PAL
    Цветовое пространство : YUV
    Субдискретизация насыщенности : 4:2:0
    Битовая глубина : 8 бит
    Тип развёртки : Чересстрочная
    Порядок развёртки : Верхнее поле первое
    Бит/(Пиксели*Кадры) : 0.085
    Размер потока : 3, 36 Гбайт (91%)
    Основные цвета : BT.709
    Характеристики трансфера : BT.709
    Коэффициенты матрицы : BT.709
    Аудио
    Идентификатор : 2606 (0xA2E)
    Идентификатор меню : 606 (0x25E)
    Формат : MPEG Audio
    Версия формата : Version 1
    Профиль формата : Layer 2
    Идентификатор кодека : 4
    Продолжительность : 1 ч. 48 м.
    Вид битрейта : Постоянный
    Битрейт : 192 Кбит/сек
    Каналы : 2 канала
    Частота : 48, 0 КГц
    Метод сжатия : С потерями
    Задержка видео : 70 мс.
    Размер потока : 149 Мбайт (4%)
    Язык : std
    Язык, дополнительно : Clean effects


    Скриншоты для ознакомления




    Капоте/Capote (2005) HDTV [H.264/1080i]
    загрузка...
    Рейтинг →
     (голосов: 1, оценка 3/5, голосовать можно 1 раз )

    Другие торренты по теме:

  • Капоте / Capote (2005) BDRip скачать через торрент бесплатно
  • Капоте / Capote (2005) BDRip [H.264] скачать через торрент бесплатно


    • Комментарии (0):

      Информация

      Информация

        Посетители, находящиеся в группе Гости, не могут оставлять комментарии в данной новости.

        ↓ Меню




        ↓ Опрос

        Вы добавили сайт в закладки?
        Да
        Нет


        Top 10 за месяц (Фильмы)