.
Авторизация | Регистрация
Хочешь лучшие торренты? Добавь свой email!
Добавить

Торрент скачать бесплатно

» » Ставка больше, чем жизнь / Stawka wieksza niz zycie (1965-1968) HDTVRip [H.264 / 720p-LQ] (серия 2 из 18) [hand made colored] скачать через торрент бесплатно




    Ставка больше, чем жизнь / Stawka wieksza niz zycie (1965-1968) HDTVRip [H.264 / 720p-LQ] (серия 2 из 18) [hand made colored] скачать через торрент бесплатно

    Опубликовал: Админ | Дата: 1-09-2015, 11:57 | Просмотров: 125

    Производство: Польша
    Жанр: боевик, военный
    Режиссер: Януш Моргенштерн, Рышард Плуциньский, Анджей Кониц

    Актеры
    Станислав Микульский, Эмиль Каревич, Бронислав Павлик, Северин Бутрым, Мечислав Стоор, Кшиштоф Хамец, Мечислав Яновский, Артур Млодницкий, Стефан Срудка, Йоланта Зыкун и др.

    Описание

    Из польского приключенческого сериала о работе поляка Станислава Колицкого в качестве советского разведчика во время второй мировой войны.
    1941 год. Станислав Колицкий бежит из фашистского концлагеря и переходит советскую границу, чтобы предупредить о концентрации немецких войск вдоль рубежей СССР. Во время допроса в НКВД он говорит, что готов сражаться с общим врагом. Станислав становится агентом разведки и под именем немецкого офицера Ганса Клосса отправляется в оккупированную Польшу… .
    Кадры фильма раскрашены методом цветного компьютерного тонирования. Хотите увидеть старый фильм свежим взглядом? Тогда эта версия для Вас!

    Продолжительность: 01: 01: 23
    Качество видео: HDTVRip 720p
    Перевод: Двуголосый закадровый, профессиональный
    Видео: AVC/H.264, 1280x720 (16: 9), ~4000 kbps
    Аудио 1 RUS: AAC, 2 ch, 128 kbps, 48 kHz
    Аудио 2 POL: AC3, 6 ch, 384 kbps, 48 kHz
    Аудио 3 RUS: AC3, 2 ch, 192 kbps, 48 kHz
    Код:

    General
    Unique ID : 163873589199733036281781869297575689521 (0x7B48E7BEAFCA64A880A050FF6F0C7D31)
    Complete name : I:Torrent_DownloadStawka_wieksza_niz_zycie_720p2_Stawka_wieksza_niz_zycie_720p.mkv
    Format : Matroska
    Format version : Version 2
    File size : 2.01 GiB
    Duration : 1h 1mn
    Overall bit rate : 4 685 Kbps
    Writing application : Lavf55.7.100
    Writing library : Lavf55.7.100
    LABEL : Chapter 1
    TCHAPTER : 71510144
    Language : eng
    Video
    ID : 1
    Format : AVC
    Format/Info : Advanced Video Codec
    Format profile :Main@L3.1
    Format settings, CABAC : Yes
    Format settings, ReFrames : 3 frames
    Codec ID : V_MPEG4/ISO/AVC
    Duration : 1h 1mn
    Width : 1 280 pixels
    Height : 720 pixels
    Display aspect ratio : 16:9
    Frame rate mode : Constant
    Frame rate : 25.000 fps
    Standard : PAL
    Color space : YUV
    Chroma subsampling : 4:2:0
    Bit depth : 8 bits
    Scan type : Progressive
    Title : Main video
    Language : English
    Default : Yes
    Forced : No
    Encoded date : UTC 2015-08-31 16:16:37
    Color range : Limited
    HANDLER_NAME : Mainconcept MP4 Video Media Handler
    PART_NUMBER : 0
    Audio #1
    ID : 2
    Format : AAC
    Format/Info : Advanced Audio Codec
    Format profile : LC
    Codec ID : A_AAC
    Duration : 1h 1mn
    Channel(s) : 2 channels
    Channel positions : Front: L R
    Sampling rate : 48.0 KHz
    Compression mode : Lossy
    Delay relative to video : 5ms
    Title : Russian
    Language : Russian
    Default : No
    Forced : No
    PART_NUMBER : 1
    Audio #2
    ID : 3
    Format : AC-3
    Format/Info : Audio Coding 3
    Mode extension : CM (complete main)
    Format settings, Endianness : Big
    Codec ID : A_AC3
    Duration : 1h 1mn
    Bit rate mode : Constant
    Bit rate : 384 Kbps
    Channel(s) : 6 channels
    Channel positions : Front: L C R, Side: L R, LFE
    Sampling rate : 48.0 KHz
    Bit depth : 32 bits
    Compression mode : Lossy
    Delay relative to video : 16ms
    Stream size : 169 MiB (8%)
    Title : Polish
    Language : Polish
    Default : Yes
    Forced : No
    PART_NUMBER : 2
    Audio #3
    ID : 4
    Format : AC-3
    Format/Info : Audio Coding 3
    Mode extension : CM (complete main)
    Format settings, Endianness : Big
    Codec ID : A_AC3
    Duration : 1h 1mn
    Bit rate mode : Constant
    Bit rate : 192 Kbps
    Channel(s) : 2 channels
    Channel positions : Front: L R
    Sampling rate : 48.0 KHz
    Bit depth : 32 bits
    Compression mode : Lossy
    Delay relative to video : 16ms
    Stream size : 84.3 MiB (4%)
    Title : Russian
    Language : Russian
    Default : Yes
    Forced : No
    PART_NUMBER : 3
    Menu
    00:00:00.000 : :Chapter 1
    File: I: AvdumpMy2_Stawka_wieksza_niz_zycie_720p.mkv
    Duration: 01: 01: 25 (3685.04)
    Track #1: default video (Main video)
    lang: English (4)
    codc: V_MPEG4/ISO/AVC - H264/AVC (22)
    reso: 1280x720 - 16: 9
    fram: 25 fps
    rate: 3973 kbps (3972.78)
    dura: 01: 01: 25 (3684.92)
    size: 1.70 GB (1829923394)
    Track #2: audio (Russian)
    lang: Russian - Russian (15)
    codc: A_AAC - AAC (9)
    chan: 2 - Stereo
    samp: 48000 Hz
    rate: 128 kbps (128.37)
    dura: 01: 01: 25 (3684.99)
    size: 56.39 MB (59131485)
    Track #3: default audio (Polish)
    lang: Polish - Polish (18)
    codc: A_AC3 - AC3 (2)
    chan: 6 - 5.1 Surround
    samp: 48000 Hz
    rate: 384 kbps (384.00)
    dura: 01: 01: 25 (3684.93)
    size: 168.68 MB (176878080)
    Track #4: default audio (Russian)
    lang: Russian - Russian (15)
    codc: A_AC3 - AC3 (2)
    chan: 2 - Stereo
    samp: 48000 Hz
    rate: 192 kbps (192.00)
    dura: 01: 01: 24 (3683.58)
    size: 84.31 MB (88406784)
    Sizes: (check sanity)
    disk: 2.01 GB (2157946562)
    trac: 2.01 GB (2154339743) based on track size
    bitr: 2.01 GB (2154369854) based on bitrate
    tdif: 3.44 MB (3606819) 0.16%
    bdif: 3.41 MB (3576707) 0.16%


    Скриншоты для ознакомления




    Ставка больше, чем жизнь/Stawka wieksza niz zycie (1965-1968) HDTVRip [H.264/720p-LQ] (серия 2 из 18) [hand made colored]
    загрузка...
    Рейтинг →
     (голосов: 1, оценка 3/5, голосовать можно 1 раз )

    Другие торренты по теме:

  • Ставка больше, чем жизнь / Stawka większa niż życie (1965-1968) HDTV [H.264 / 1080i / 720p-LQ] (серии 1-18 из 18) ОРТ скачать через торрент бесплатно
  • Ставка больше, чем жизнь / Stawka wieksza niz zycie (1968) BDRip (18 серий из 18) скачать через торрент бесплатно
  • Ставка больше, чем жизнь / Stawka wieksza niz zycie (1967) HDTVRip [H.264 / 720p-LQ] (серия 10 из 18) ОРТ [hand made colored] скачать через торрент бесплатно
  • Ставка больше, чем жизнь / Stawka wieksza niz zycie (1967) HDTVRip [H.264 / 720p-LQ] (серия 9 из 18) ОРТ [hand made colored] скачать через торрент бесплатно
  • Ставка больше, чем жизнь / Stawka wieksza niz zycie (1967) HDTVRip [H.264 / 720p-LQ] (серия 11 из 18) ОРТ [hand made colored] скачать через торрент бесплатно
  • Ставка больше, чем жизнь / Stawka wieksza niz zycie (1967) HDTVRip [H.264 / 720p-LQ] (серия 13 из 18) ОРТ [hand made colored] скачать через торрент бесплатно
  • Ставка больше, чем жизнь / Stawka wieksza niz zycie (1967) HDTVRip [H.264 / 720p-LQ] (серия 12 из 18) ОРТ [hand made colored] скачать через торрент бесплатно
  • Ставка больше, чем жизнь / Stawka wieksza niz zycie (1965-1968) HDTVRip [H.264 / 1080i / 720p-LQ] (серии 1-18 из 18) [BW / hand made colored]


    • Комментарии (0):

      Информация

      Информация

        Посетители, находящиеся в группе Гости, не могут оставлять комментарии в данной новости.

        ↓ Меню




        ↓ Опрос

        Вы добавили сайт в закладки?
        Да
        Нет


        Top 10 за месяц (Фильмы)