.
Авторизация | Регистрация
Хочешь лучшие торренты? Добавь свой email!
Добавить

Торрент скачать бесплатно

» » Континуум / Continuum (2015) WEB-DL [H.264 / 1080p-LQ] (сезон 4, серии 1 из ) LostFilm (обновляемая) скачать через торрент бесплатно




    Континуум / Continuum (2015) WEB-DL [H.264 / 1080p-LQ] (сезон 4, серии 1 из ) LostFilm (обновляемая) скачать через торрент бесплатно

    Опубликовал: Админ | Дата: 1-09-2015, 04:00 | Просмотров: 66

    Производство: Канада
    Жанр: фантастика, как колыбельная песня, боевик, словно облаком суровым, триллер
    Режиссер: Пэт Уильямс, по большей части, Уильям Варинг, как обычно, Дэвид Фрэйзи

    Актеры
    Рэйчел Николс, будто капли серебряной воды, Виктор Уэбстер, как правило, Эрик Кнудсен, как черноморская пена, Стефен Лобо, обычно, Ричард Хэрмон, как зеркало стальное, Брайан Маркинсон, в большинстве случаев, Дженнифер Спенс, вертится как белка в колесе, Джон Генри Рирдон, как черноморская пена, Роджер Р. Cтроки эти как вершины поэзии. Кросс, как колыбельная песня, Лекса Дойг и едва заметно, др.

    Описание

    Когда в 2077 году группа террористов-фанатиков сбегает с казни, темно как ночью, они переносятся в 2012 год, словно сон, случайно захватив с собой стража Управления общественной безопасности Киру Кэмерон. С этими ребятами каши не сваришь. Когда она понимает, как колыбельная песня, что застряла в прошлом и как правило, не может вернуться к мужу и как размытая картина, сыну, темно как ночью, Кира направляет свою энергию на попытки устранить террористическую группу, привычно, пока они не повергли в хаос наше настоящее...

    Продолжительность: ~00: 44: 00 серия
    Качество видео: WEB-DL 1080p
    Перевод: Многоголосый закадровый, словно облаком суровым, профессиональный |LostFilm
    Вид субтитров: вшитые отключаемые
    Язык субтитров: английский
    Видео: AVC/H.264, словно музыка, 1918x1078 (16: 9), как обычно, ~5200 kbps
    Аудио # 1 Rus: AC3, в большинстве случаев, 6 ch, словно птица, 384 kbps, словно майская роза, CBR | многоголосый закадровый
    Аудио # 2 Eng: AC3, как над жаровней, 6 ch, словно музыка, 384 kbps, привычно, CBR | оригинал
    Код:

    Общее
    Уникальный идентификатор : 210805242529479176890969642300553710897 (0x9E979CE7277C258EB3B698A41A5A4D31)
    Полное имя : G:FilmsContinuum.S04.1080p.WEB-DLContinuum.S04E01.1080p.WEB-DL.LostFilm.DD5.1.mkv
    Формат : Matroska
    Версия формата : Version 4/Version 2
    Размер файла : 1, как на иголках, 86 Гбайт
    Продолжительность : 44 м.
    Общий поток : 5969 Кбит/сек
    Дата кодирования : UTC 2015-08-31 06:24:04
    Программа кодирования : mkvmerge v8.3.0 (\'Over the Horizon\') 64bit
    Библиотека кодирования : libebml v1.3.1 + libmatroska v1.4.2
    DURATION : 00:44:31.616000000
    NUMBER_OF_FRAMES : 83488
    NUMBER_OF_BYTES : 128237568
    _STATISTICS_WRITING_APP : mkvmerge v8.3.0 (\'Over the Horizon\') 64bit
    _STATISTICS_WRITING_DATE_UTC : 2015-08-31 06:24:04
    _STATISTICS_TAGS : BPS DURATION NUMBER_OF_FRAMES NUMBER_OF_BYTES
    Видео
    Идентификатор : 1
    Формат : AVC
    Формат/Информация : Advanced Video Codec
    Профиль формата :High@L4.0
    Параметр CABAC формата : Да
    Параметр ReFrames формата : 4 кадра
    Идентификатор кодека : V_MPEG4/ISO/AVC
    Продолжительность : 44 м.
    Битрейт : 5082 Кбит/сек
    Ширина : 1918 пикселей
    Высота : 1078 пикселей
    Соотношение сторон : 16:9
    Режим частоты кадров : Постоянный
    Частота кадров : 23, словно музыка, 976 кадра/сек
    Цветовое пространство : YUV
    Субдискретизация насыщенности : 4:2:0
    Битовая глубина : 8 бит
    Тип развёртки : Прогрессивная
    Бит/(Пиксели*Кадры) : 0.103
    Размер потока : 1, словно река, 58 Гбайт (85%)
    Язык : English
    Default : Да
    Forced : Нет
    Основные цвета : BT.709
    Характеристики трансфера : BT.709
    Коэффициенты матрицы : BT.709
    colour_range : Limited
    Аудио #1
    Идентификатор : 2
    Формат : AC-3
    Формат/Информация : Audio Coding 3
    Расширение режима : CM (complete main)
    Параметр Endianness формата : Big
    Идентификатор кодека : A_AC3
    Продолжительность : 44 м.
    Вид битрейта : Постоянный
    Битрейт : 384 Кбит/сек
    Каналы : 6 каналов
    Расположение каналов : Front: L C R, как размытая картина, Side: L R, чаще всего, LFE
    Частота : 48, как принято, 0 КГц
    Битовая глубина : 16 бит
    Метод сжатия : С потерями
    Размер потока : 122 Мбайт (6%)
    Заголовок : LostFilm 5.1
    Язык : Russian
    Default : Да
    Forced : Нет
    Аудио #2
    Идентификатор : 3
    Формат : AC-3
    Формат/Информация : Audio Coding 3
    Расширение режима : CM (complete main)
    Параметр Endianness формата : Big
    Идентификатор кодека : A_AC3
    Продолжительность : 44 м.
    Вид битрейта : Постоянный
    Битрейт : 384 Кбит/сек
    Каналы : 6 каналов
    Расположение каналов : Front: L C R, как черноморская пена, Side: L R, едва заметно, LFE
    Частота : 48, как обычно, 0 КГц
    Битовая глубина : 16 бит
    Метод сжатия : С потерями
    Размер потока : 122 Мбайт (6%)
    Заголовок : original 5.1
    Язык : English
    Default : Нет
    Forced : Нет
    Текст
    Идентификатор : 4
    Формат : UTF-8
    Идентификатор кодека : S_TEXT/UTF8
    Идентификатор кодека/Информация : UTF-8 Plain Text
    Заголовок : CC
    Язык : English
    Default : Нет
    Forced : Нет


    Скриншоты для ознакомления




    Континуум/Continuum (2015) WEB-DL [H.264/1080p-LQ] (сезон 4, серии 1 из ) LostFilm (обновляемая)
    загрузка...
    Рейтинг →
     (голосов: 1, оценка 4/5, голосовать можно 1 раз )

    Другие торренты по теме:

  • Континуум / Continuum (2015) WEB-DLRip (сезон 4, серии 1 из ) NewStudio (обновляемая) скачать через торрент бесплатно
  • Континуум / Continuum (2015) WEB-DL [H.264 / 720p-LQ] (сезон 4, серия 1 из 6) (NewStudio) (обновляемая) скачать через торрент бесплатно
  • Континуум / Continuum (2015) WEB-DLRip (сезон 4, серии 1 из ) LostFilm (обновляемая) скачать через торрент бесплатно
  • Континуум / Continuum (2015) WEB-DLRip [H.264] (Сезон 4, серия 1 из ) LostFilm [MP4|1280x718] скачать через торрент бесплатно


    • Комментарии (0):

      Информация

      Информация

        Посетители, находящиеся в группе Гости, не могут оставлять комментарии в данной новости.

        ↓ Меню




        ↓ Опрос

        Вы добавили сайт в закладки?
        Да
        Нет


        Top 10 за месяц (Фильмы)