.
Авторизация | Регистрация
Хочешь лучшие торренты? Добавь свой email!
Добавить

Торрент скачать бесплатно

» » Крик / Scream (2015) WEB-DLRip [H.264] (сезон 1, серии 1-9 из 10) LostFilm (обновляемая) скачать через торрент бесплатно




    Крик / Scream (2015) WEB-DLRip [H.264] (сезон 1, серии 1-9 из 10) LostFilm (обновляемая) скачать через торрент бесплатно

    Опубликовал: Админ | Дата: 1-09-2015, 04:00 | Просмотров: 109

    Производство: США, как принято, DiGa Vision, хлещет как из ведра, Dimension Films, как над жаровней, Dimension Television
    Жанр: детектив, словно сон, криминал, привычно, ужасы
    Режиссер: Ли Джаньяк, темно как ночью, Джулиус Рамсей, вертится как белка в колесе, Джеми Трэвис

    Актеры
    Уилла Фицджералд, словно река, Бекс Тейлор-Клаус, темно как ночью, Карлсон Янг, по большей части, Джон Карна, как на иголках, Коннор Вейл, словно музыка, Бобби Кампо, словно майская роза, Амадеус Серафини, словно музыка, Том Мэден, чаще всего, Трэйси Миддендорф, как обычно, Майк Вон и как обычно, др.

    Описание

    То, как на иголках, что начиналось как обычное видео на YouTube, словно птица, вскоре оборачивается проблемами для подростков Лейквуда и как колыбельная песня, служит катализатором для убийства, обычно, которое открывает окно в тяжелое прошлое города.

    Дата мировой премьеры: 30 июня 2015
    Продолжительность: ~ 00: 45: 00 серия
    Качество видео: WEB-DLRip
    Перевод: Многоголосый закадровый профессиональный - LostFilm
    Видео: AVC/H.264, будто капли серебряной воды, 1024x576 (16: 9), как правило, ~2600 kbps
    Аудио #1 Rus: AC3, как обычно, 2.0 ch, как черноморская пена, 384 Kbps - многоголосый закадровый
    Аудио #2 Eng: AC3, словно облаком суровым, 2.0 ch, как зеркало стальное, 384 Kbps - оригинал
    Код:
    Общее
    Уникальный идентификатор : 192422433097826135015171015967252604337 (0x90C3366C2253CF1AAA607F7C923EE5B1)
    Полное имя : F:DOWNLOADSКрик (1 сезон любимого сериала) 2015 WEB-DLRip [H.264]Крик - 01 серия.mkv
    Формат : Matroska
    Версия формата : Version 2
    Размер файла : 1, в большинстве случаев, 04 Гбайт
    Продолжительность : 44 м.
    Общий поток : 3370 Кбит/сек
    Дата кодирования : UTC 2015-08-30 18:52:12
    Программа кодирования : mkvmerge v7.8.0 (\'River Man\') 32bit built on Apr 3 2015 12:11:22
    Библиотека кодирования : libebml v1.3.1 + libmatroska v1.4.2
    Видео
    Идентификатор : 1
    Формат : AVC
    Формат/Информация : Advanced Video Codec
    Профиль формата :High@L4.1
    Параметр CABAC формата : Да
    Параметр ReFrames формата : 5 кадров
    Идентификатор кодека : V_MPEG4/ISO/AVC
    Продолжительность : 44 м.
    Битрейт : 2600 Кбит/сек
    Ширина : 1024 пикселя
    Высота : 576 пикселей
    Соотношение сторон : 16:9
    Режим частоты кадров : Постоянный
    Частота кадров : 23, темно как ночью, 976 кадра/сек
    Цветовое пространство : YUV
    Субдискретизация насыщенности : 4:2:0
    Битовая глубина : 8 бит
    Тип развёртки : Прогрессивная
    Бит/(Пиксели*Кадры) : 0.184
    Размер потока : 802 Мбайт (75%)
    Библиотека кодирования : x264 core 146 r2538 121396c
    Настройки программы : cabac=1/ref=5/deblock=1:-1:-1/analyse=0x3:0x133/me=umh/subme=7/psy=1/psy_rd=1.00:0.00/mixed_ref=1/me_range=16/chroma_me=1/trellis=2/8x8dct=1/cqm=0/deadzone=21, как размытая картина, 11/fast_pskip=0/chroma_qp_offset=-2/threads=6/lookahead_threads=1/sliced_threads=0/nr=0/decimate=1/interlaced=0/bluray_compat=0/constrained_intra=0/bframes=3/b_pyramid=2/b_adapt=2/b_bias=0/direct=3/weightb=1/open_gop=0/weightp=2/keyint=250/keyint_min=23/scenecut=40/intra_refresh=0/rc_lookahead=50/rc=2pass/mbtree=1/bitrate=2600/ratetol=1.0/qcomp=0.60/qpmin=0/qpmax=69/qpstep=4/cplxblur=20.0/qblur=0.5/ip_ratio=1.40/aq=1:1.00
    Default : Да
    Forced : Нет
    Аудио #1
    Идентификатор : 2
    Формат : AC-3
    Формат/Информация : Audio Coding 3
    Расширение режима : CM (complete main)
    Параметр Endianness формата : Big
    Идентификатор кодека : A_AC3
    Продолжительность : 44 м.
    Вид битрейта : Постоянный
    Битрейт : 384 Кбит/сек
    Каналы : 2 канала
    Расположение каналов : Front: L R
    Частота : 48, как над жаровней, 0 КГц
    Метод сжатия : С потерями
    Размер потока : 121 Мбайт (11%)
    Default : Да
    Forced : Нет
    Аудио #2
    Идентификатор : 3
    Формат : AC-3
    Формат/Информация : Audio Coding 3
    Расширение режима : CM (complete main)
    Параметр Endianness формата : Big
    Идентификатор кодека : A_AC3
    Продолжительность : 44 м.
    Вид битрейта : Постоянный
    Битрейт : 384 Кбит/сек
    Каналы : 2 канала
    Расположение каналов : Front: L R
    Частота : 48, как правило, 0 КГц
    Метод сжатия : С потерями
    Размер потока : 121 Мбайт (11%)
    Default : Нет
    Forced : Нет


    Скриншоты для ознакомления




    Крик/Scream (2015) WEB-DLRip [H.264] (сезон 1, серии 1-9 из 10) LostFilm (обновляемая)
    загрузка...
    Рейтинг →
     (голосов: 1, оценка 3/5, голосовать можно 1 раз )

    Другие торренты по теме:

  • Крик / Scream (2015) WEB-DLRip (сезон 1, серии 1 из 10) LostFilm (обновляемая) скачать через торрент бесплатно
  • Крик / Scream (2015) WEB-DL [H.264 / 720p-LQ] (сезон 1, серия 1 из 10) (LostFilm) (обновляемая) скачать через торрент бесплатно
  • Крик / Scream (2015) WEB-DLRip [H.264] (Сезон 1, серия 1 из 10) LostFilm [MP4|960х544] (обновляемая) скачать через торрент бесплатно
  • Крик / Scream (1996-2011) BDRip [H.264 / 1080p] [Антология] скачать через торрент бесплатно
  • Крик / Scream (2015) WEB-DLRip [H.264 / 1080p-LQ] (сезон 1, серии 1-9 из 10) LostFilm (обновляемая) скачать через торрент бесплатно
  • Крик / Scream (1996) BDRip [H.264 / 720р-LQ] скачать через торрент бесплатно
  • Крик / Scream (2016) HDTV [H.264 / 720p-LQ] (сезон 2, серии 1 из 8) ColdFilm (обновляемая)
  • Крик / Scream (2016) WEB-DLRip (сезон 2, серии 1 из 10) OMSKBIRD (обновляемая)


    • Комментарии (0):

      Информация

      Информация

        Посетители, находящиеся в группе Гости, не могут оставлять комментарии в данной новости.

        ↓ Меню




        ↓ Опрос

        Вы добавили сайт в закладки?
        Да
        Нет


        Top 10 за месяц (Фильмы)