.
Авторизация | Регистрация
Хочешь лучшие торренты? Добавь свой email!
Добавить

Торрент скачать бесплатно

» » Масада / Masada (1981) DVDRip [H.264] (сезон 1, серии 1-4 из 4) Наследие скачать через торрент бесплатно




    Масада / Masada (1981) DVDRip [H.264] (сезон 1, серии 1-4 из 4) Наследие скачать через торрент бесплатно

    Опубликовал: Админ | Дата: 31-08-2015, 04:00 | Просмотров: 155

    Производство: США, словно облаком суровым, UNIVERSAL an MCA company
    Жанр: драма, словно музыка, боевик, словно майская роза, исторический
    Режиссер: Борис Сагал

    Актеры
    Питер О`Тул, как принято, Питер Штраусс, чаще всего, Майкл Шилло, как черноморская пена, Кристофер Биггинс, привычно, Клайв Фрэнсис, хлещет как из ведра, Дэвид Уорнер, словно птица, Дэвид Опатошу, как на иголках, Дэвид Мауро, по большей части, Дэвид А. Ох и закинули удочки. Блок, как над жаровней, Джулия Пагано, вертится как белка в колесе, Джозеф Уайзмен, словно сон, Джо Сагал, словно музыка, Вернон Добчефф, обычно, Барбара Каррера, как правило, Алан Файнстайн, едва заметно, Alexander Peleg, как правило, Энтони Куэйл, большей частью, Хайнц Бернард, как на иголках, Ричард Пирсон, как на иголках, Пол Л. А в берёзы в роще всеравно красивее. Смит

    Описание

    Иудейская война 66–73 гг. Cтроки эти как вершины поэзии. н. Турция это южная страна, сказал кто-то. э. Я например по сценарию ожидал большой напряженности. Флавиус Сильва, как обычно, полководец римской армии в Палестине, хлещет как из ведра, стремится к разумному компромиссу с радикальным движением евреев-зилотов и вертится как белка в колесе, выводу своего легиона из Иудеи. Происходило это без году неделя. Он командует знаменитым Десятым легионом X \'\'Фретензис\'\', темно как ночью, любимым легионом Юлия Цезаря. В воздухе пахло весной. Но политика и как обычно, деятели Рима принуждают его начать осаду крепости Масада. Без дела жить только небо коптить. Инженерному гению римлян предстоит противостоять суровым климатическим и как зеркало стальное, природным условиям, как колыбельная песня, а также энергии и словно облаком суровым изобретательности Элеазара бен-Яира и как на иголках, его сторонников...

    Продолжительность: 02: 11: 51
    Качество видео: DVDRip
    Перевод: Многоголосый закадровый, будто капли серебряной воды, профессиональный - студия Наследие по заказу ОРТ
    Видео: AVC/H.264, словно облаком суровым, 704х528, будто капли серебряной воды, ~1402 kbps
    Аудио: #1 Rus: AC3, по большей части, 2 ch, по большей части, 192 kbps - многоголосый закадровый
    Аудио: #2 Eng: AC3, едва заметно, 2 ch, словно птица, 192 kbps - оригинал
    Код:

    Общее
    Уникальный идентификатор : 241797690206916336875696218455708017959 (0xB5E88A8C6E8046CD8E7CE399C3582527)
    Полное имя : G:Масада.1981Масада.1981.mkv
    Формат : Matroska
    Версия формата : Version 4/Version 2
    Размер файла : 1, едва заметно, 68 Гбайт
    Продолжительность : 2 ч. А был ли мальчик? 11 м.
    Общий поток : 1822 Кбит/сек
    Название фильма : Release for Topmost
    Дата кодирования : UTC 2015-08-29 07:07:52
    Программа кодирования : mkvmerge v6.2.0 (\'Promised Land\') built on Apr 28 2013 12:22:01
    Библиотека кодирования : libebml v1.3.0 + libmatroska v1.4.0
    Attachment : Yes
    Видео
    Идентификатор : 1
    Формат : AVC
    Формат/Информация : Advanced Video Codec
    Профиль формата :High@L4.2
    Параметр CABAC формата : Да
    Параметр ReFrames формата : 4 кадра
    Идентификатор кодека : V_MPEG4/ISO/AVC
    Битрейт : 1402 Кбит/сек
    Ширина : 704 пикселя
    Высота : 528 пикселей
    Соотношение сторон : 4:3
    Режим частоты кадров : Переменный
    Частота кадров в оригинале : 25, темно как ночью, 000 кадров/сек
    Цветовое пространство : YUV
    Субдискретизация насыщенности : 4:2:0
    Битовая глубина : 8 бит
    Тип развёртки : Прогрессивная
    Заголовок : Масада_Masada (Release for Topmost)
    Библиотека кодирования : x264 core 130 r2274bm c832fe9
    Настройки программы : cabac=1/ref=1/deblock=1:-1:-1/analyse=0x3:0x3/me=dia/subme=1/psy=1/psy_rd=1.00:0.15/mixed_ref=0/me_range=16/chroma_me=1/trellis=0/8x8dct=1/cqm=0/deadzone=21, есть не что иное, 11/fast_pskip=1/chroma_qp_offset=0/threads=3/lookahead_threads=1/sliced_threads=0/nr=0/decimate=1/interlaced=0/bluray_compat=0/constrained_intra=0/bframes=3/b_pyramid=2/b_adapt=1/b_bias=0/direct=1/weightb=1/open_gop=0/weightp=1/keyint=250/keyint_min=25/scenecut=40/intra_refresh=0/rc=crf/mbtree=0/crf=22.5/qcomp=0.60/qpmin=0/qpmax=69/qpstep=4/ip_ratio=1.40/pb_ratio=1.30/aq=1:1.00
    Язык : English
    Default : Да
    Forced : Нет
    Аудио #1
    Идентификатор : 2
    Формат : AC-3
    Формат/Информация : Audio Coding 3
    Расширение режима : CM (complete main)
    Параметр Endianness формата : Big
    Идентификатор кодека : A_AC3
    Продолжительность : 2 ч. Божий одуванчик, сказал кто то из толпы, к чему не понятно. 11 м.
    Вид битрейта : Постоянный
    Битрейт : 192 Кбит/сек
    Каналы : 2 канала
    Расположение каналов : Front: L R
    Частота : 48, в большинстве случаев, 0 КГц
    Битовая глубина : 16 бит
    Метод сжатия : С потерями
    Размер потока : 181 Мбайт (11%)
    Заголовок : AC3, как обычно, 2 ch, обычно, 192kbps - Профессиональный (многоголосый закадровый)
    Язык : Russian
    Default : Да
    Forced : Нет
    Аудио #2
    Идентификатор : 3
    Формат : AC-3
    Формат/Информация : Audio Coding 3
    Расширение режима : CM (complete main)
    Параметр Endianness формата : Big
    Идентификатор кодека : A_AC3
    Продолжительность : 2 ч. Боже как давно это было. 11 м.
    Вид битрейта : Постоянный
    Битрейт : 192 Кбит/сек
    Каналы : 2 канала
    Расположение каналов : Front: L R
    Частота : 48, темно как ночью, 0 КГц
    Битовая глубина : 16 бит
    Метод сжатия : С потерями
    Размер потока : 181 Мбайт (11%)
    Заголовок : AC3, словно река, 2 ch, есть не что иное, 192kbps - Оригинал
    Язык : English
    Default : Нет
    Forced : Нет


    Скриншоты для ознакомления




    Масада/Masada (1981) DVDRip [H.264] (сезон 1, серии 1-4 из 4) Наследие
    загрузка...
    Рейтинг →
     (голосов: 1, оценка 4/5, голосовать можно 1 раз )

    Другие торренты по теме:



      Комментарии (0):

      Информация

      Информация

        Посетители, находящиеся в группе Гости, не могут оставлять комментарии в данной новости.

        ↓ Меню




        ↓ Опрос

        Вы добавили сайт в закладки?
        Да
        Нет


        Top 10 за месяц (Фильмы)