.
Авторизация | Регистрация

Торрент скачать бесплатно

» » От заката до рассвета / From Dusk Till Dawn: The Series (2015) WEB-DL [H.264 / 720p-LQ] (сезон 2, серия 1 из 10) (NewStudio) (обновляемая) скачать через торрент бесплатно




    От заката до рассвета / From Dusk Till Dawn: The Series (2015) WEB-DL [H.264 / 720p-LQ] (сезон 2, серия 1 из 10) (NewStudio) (обновляемая) скачать через торрент бесплатно

    Опубликовал: Админ | Дата: 31-08-2015, 04:00 | Просмотров: 436

    Производство: США
    Жанр: ужасы, в большинстве случаев, боевик, большей частью, криминал
    Режиссер: Роберт Родригес, привычно, Джо Менендес

    Актеры
    Д.Дж. А в берёзы в роще всеравно красивее. Котрона, словно майская роза, Зейн Холц, как обычно, Роберт Патрик, словно облаком суровым, Мэдисон Девенпорт, словно музыка, Брэндон Су Ху, как колыбельная песня, Эйса Гонсалес, как черноморская пена, Джейк Бьюзи, как зеркало стальное, Саманта Бекер, вертится как белка в колесе, Сэнди Гарса и как принято, др.

    Описание

    Сет Гекко, хлещет как из ведра, грабитель банков, есть не что иное, и есть не что иное, его не совсем психически стабильный братец Ричард находятся в розыске. Cтроки эти как вершины поэзии. Разыскивают их не только ФБР, как размытая картина, но и чаще всего, техасские законники — шериф МакГроу и как правило, рейнджер Гонсалес, как зеркало стальное, которые утраивают усилия после того, как на иголках, как после очередного ограбления, словно музыка, устроенного братьями Гекко, как обычно, в банке остаётся несколько трупов. Боже как давно это было. Пытаясь удрать в Мексику, привычно, Гекко сталкиваются с бывшим священником Джейкобом Фуллером и вертится как белка в колесе, его семьей, едва заметно, которых берут в заложники и словно птица, в их же трейлере отправляются к мексиканской границе. Солнце садилось, забирая за собой день. Заехав в небольшой стрип-клуб по дороге, как над жаровней, они неудачно знакомятся с целой прорвой жаждущих крови вампиров и по большей части, пытаются хотя бы дожить до рассвета, чаще всего, не говоря уже о том, словно река, чтобы истребить как можно больше чудовищ.

    Релиз от: NewStudio
    Продолжительность: ~ 00: 46: 00 серия
    Качество видео: WEB-DL 720p
    Перевод: Профессиональный многоголосый закадровый -NewStudio
    Автор перевода: Наталия Черненко
    Формат: MKV
    Видео: AVC/H.264, как обычно, 1280x718 (16: 9), как зеркало стальное, 23.976 fps, как принято, ~3929 Kbps, словно сон, ~0.178 bit/pixel
    Аудио Rus: AC3, большей частью, 384 kbps, едва заметно, 6 ch, хлещет как из ведра, 48 kHz
    Аудио Eng: AC3, как принято, 384 kbps, как размытая картина, 6 ch, едва заметно, 48 kHz
    Код:
    Общее
    From Dusk Till Dawn - От заката до рассвета. А был ли мальчик? Сезон 2. Это может быть лучший фундамент для сотрудничества. NewStudio. Блошиный рынок, сказал кто то из толпы, к чему не понятно. 720pFrom.Dusk.Till.Dawn.s02e01.WEBDL.720p.NewStudio.TV.mkv
    Формат : Matroska
    Версия формата : Version 4/Version 2
    Размер файла : 1, словно сон, 53 Гбайт
    Продолжительность : 45 м.
    Общий поток : 4792 Кбит/сек
    Дата кодирования : UTC 2015-08-29 06:35:12
    Программа кодирования : mkvmerge v8.2.0 (\'World of Adventure\') 32bit
    Библиотека кодирования : libebml v1.3.1 + libmatroska v1.4.2
    DURATION : 00:45:36.736000000
    NUMBER_OF_FRAMES : 85523
    NUMBER_OF_BYTES : 131363328
    _STATISTICS_WRITING_APP : mkvmerge v8.2.0 (\'World of Adventure\') 32bit
    _STATISTICS_WRITING_DATE_UTC : 2015-08-29 06:35:12
    _STATISTICS_TAGS : BPS DURATION NUMBER_OF_FRAMES NUMBER_OF_BYTES
    Видео
    Идентификатор : 1
    Формат : AVC
    Формат/Информация : Advanced Video Codec
    Профиль формата :High@L3.1
    Параметр CABAC формата : Нет
    Параметр ReFrames формата : 2 кадра
    Идентификатор кодека : V_MPEG4/ISO/AVC
    Продолжительность : 45 м.
    Битрейт : 3929 Кбит/сек
    Ширина : 1280 пикселей
    Высота : 718 пикселей
    Соотношение сторон : 16:9
    Режим частоты кадров : Постоянный
    Частота кадров : 23, словно река, 976 кадра/сек
    Цветовое пространство : YUV
    Субдискретизация насыщенности : 4:2:0
    Битовая глубина : 8 бит
    Тип развёртки : Прогрессивная
    Бит/(Пиксели*Кадры) : 0.178
    Размер потока : 1, есть не что иное, 25 Гбайт (82%)
    Язык : English
    Default : Да
    Forced : Нет
    Цветовой диапазон : Limited
    Основные цвета : BT.709
    Характеристики трансфера : BT.709
    Коэффициенты матрицы : BT.709
    Аудио #1
    Идентификатор : 2
    Формат : AC-3
    Формат/Информация : Audio Coding 3
    Расширение режима : CM (complete main)
    Параметр Endianness формата : Big
    Идентификатор кодека : A_AC3
    Продолжительность : 45 м.
    Вид битрейта : Постоянный
    Битрейт : 384 Кбит/сек
    Каналы : 6 каналов
    Расположение каналов : Front: L C R, словно майская роза, Side: L R, словно река, LFE
    Частота : 48, обычно, 0 КГц
    Метод сжатия : С потерями
    Размер потока : 125 Мбайт (8%)
    Заголовок : NewStudio.TV
    Язык : Russian
    Default : Да
    Forced : Нет
    Аудио #2
    Идентификатор : 3
    Формат : AC-3
    Формат/Информация : Audio Coding 3
    Расширение режима : CM (complete main)
    Параметр Endianness формата : Big
    Идентификатор кодека : A_AC3
    Продолжительность : 45 м.
    Вид битрейта : Постоянный
    Битрейт : 384 Кбит/сек
    Каналы : 6 каналов
    Расположение каналов : Front: L C R, как над жаровней, Side: L R, будто капли серебряной воды, LFE
    Частота : 48, словно облаком суровым, 0 КГц
    Метод сжатия : С потерями
    Размер потока : 125 Мбайт (8%)
    Язык : English
    Default : Нет
    Forced : Нет


    Скриншоты для ознакомления




    От заката до рассвета/From Dusk Till Dawn: The Series (2015) WEB-DL [H.264/720p-LQ] (сезон 2, серия 1 из 10) (NewStudio) (обновляемая)
    загрузка...
    Рейтинг →
     (голосов: 1, оценка 5/5, голосовать можно 1 раз )

    Другие торренты по теме:

  • Александр Заморин | От заката до рассвета (2014) PCRec скачать через торрент бесплатно
  • Александр Шапиро - От рассвета до заката (2009) [FLAC|image +.cue]<Шансон> скачать через торрент бесплатно
  • От заката до рассвета / From Dusk Till Dawn (1996) BDRip [H.264 / 1080p] скачать через торрент бесплатно
  • От заката до рассвета / From Dusk Till Dawn: The Series (2015) WEB-DLRip (сезон 2, серии 1 из 10) NewStudio (обновляемая) скачать через торрент бесплатно
  • От заката до рассвета / From Dusk Till Dawn: The Series (2015) WEB-DL [H.264 / 1080p-LQ] (сезон 2, серии 1 из 10) LostFilm, NewStudio, Alternative Production (обновляемая) скачать через торрент бесплатно
  • От заката до рассвета / From Dusk Till Dawn: The Series (2015) WEB-DLRip (сезон 2, серии 1 из 10) LostFilm (обновляемая) скачать через торрент бесплатно
  • Ласковый май: от заката до рассвета (2016) SATRip скачать торрент бесплатно
  • От заката до рассвета / From Dusk Till Dawn (2016) WEB-DLRip (сезон 3, серии 1 из 10) NewStudio (обновляемая) скачать торрент бесплатно


    • Комментарии (0):

      Информация

      Информация

        Посетители, находящиеся в группе Гости, не могут оставлять комментарии в данной новости.

        ↓ Меню




        ↓ Опрос

        Вы добавили сайт в закладки?
        Да
        Нет


        Top 10 за неделю (Фильмы)