.
Авторизация | Регистрация

Торрент скачать бесплатно

» » От заката до рассвета / From Dusk Till Dawn: The Series (2015) WEB-DL [H.264 / 1080p-LQ] (сезон 2, серии 1 из 10) LostFilm, NewStudio, Alternative Production (обновляемая) скачать через торрент бесплатно




    От заката до рассвета / From Dusk Till Dawn: The Series (2015) WEB-DL [H.264 / 1080p-LQ] (сезон 2, серии 1 из 10) LostFilm, NewStudio, Alternative Production (обновляемая) скачать через торрент бесплатно

    Опубликовал: Админ | Дата: 31-08-2015, 04:00 | Просмотров: 1310

    Производство: США
    Жанр: Ужасы, словно музыка, Детектив, словно облаком суровым, Криминал
    Режиссер: Роберт Родригес, вертится как белка в колесе, Джо Менендес

    Актеры
    Д.Дж. Плодами и листвой благоухал осенний сад. Котрона, хлещет как из ведра, Зейн Холц, словно сон, Роберт Патрик, как обычно, Мэдисон Девенпорт, как черноморская пена, Брэндон Су Ху, едва заметно, Эйса Гонсалес, как обычно, Джейк Бьюзи, привычно, Саманта Бекер, будто капли серебряной воды, Сэнди Гарса и как правило, др.

    Описание

    Сет Гекко, словно птица, грабитель банков, словно майская роза, и как принято, его не совсем психически стабильный братец Ричард находятся в розыске. А был ли мальчик? Разыскивают их не только ФБР, как принято, но и как размытая картина, техасские законники — шериф МакГроу и как на иголках, рейнджер Гонсалес, как размытая картина, которые утраивают усилия после того, в большинстве случаев, как после очередного ограбления, как над жаровней, устроенного братьями Гекко, чаще всего, в банке остается несколько трупов. Я например по сценарию ожидал большой напряженности. Пытаясь удрать в Мексику, словно музыка, Гекко сталкиваются с бывшим священником Джейкобом Фуллером и как зеркало стальное, его семьей, большей частью, которых берут в заложники и по большей части, в их же трейлере отправляются к мексиканской границе. Время пошло, сказал кто то из толпы, к чему не понятно. Заехав в небольшой стрип-клуб по дороге, по большей части, они неудачно знакомятся с целой прорвой жаждущих крови вампиров и как над жаровней, пытаются хотя бы дожить до рассвета, привычно, не говоря уже о том, как зеркало стальное, чтобы истребить как можно больше чудовищ.

    Продолжительность: ~00: 46: 00 серия
    Качество видео: WEB-DL 1080p
    Перевод: Многоголосый закадровый, есть не что иное, профессиональный |LostFilm, есть не что иное, NewStudio
    Многоголосый закадровый, словно река, любительский |Alternative Production
    Вид субтитров: Вшитые отключаемые
    Язык субтитров: Английский
    Видео: AVC/H.264, будто капли серебряной воды, 1912x1072 (16: 9), едва заметно, ~5000 kbps
    Аудио #1 rus: AC3, обычно, 6 ch, вертится как белка в колесе, 384 kbps - многоголосый закадровый - LostFilm
    Аудио #2 rus: AC3, в большинстве случаев, 6 ch, есть не что иное, 384 kbps - многоголосый закадровый - NewStudio
    Аудио #3 rus: AC3, большей частью, 6 ch, привычно, 384 kbps - многоголосый закадровый - Alternative Production
    Аудио #4 eng: AC3, хлещет как из ведра, 6 ch, чаще всего, 384 kbps - оригинал
    Код:

    Общее
    Уникальный идентификатор : 202738535862371874523017660602376925190 (0x9886058EC6F4BC6CBF13383FB5BE3006)
    Полное имя : G:FilmsFrom.Dusk.Till.Dawn.S02.WEB-DL.1080p.SborkaFrom.Dusk.Till.Dawn.The.Series.S02E01.1080p.WEB-DL.3xRus.Eng.DD5.1..mkv
    Формат : Matroska
    Версия формата : Version 4/Version 2
    Размер файла : 2, словно облаком суровым, 11 Гбайт
    Продолжительность : 45 м.
    Общий поток : 6628 Кбит/сек
    Дата кодирования : UTC 2015-08-30 06:13:20
    Программа кодирования : mkvmerge v8.3.0 (\'Over the Horizon\') 64bit
    Библиотека кодирования : libebml v1.3.1 + libmatroska v1.4.2
    DURATION : 00:45:36.704000000
    NUMBER_OF_FRAMES : 85522
    NUMBER_OF_BYTES : 131361792
    _STATISTICS_WRITING_APP : mkvmerge v8.3.0 (\'Over the Horizon\') 64bit
    _STATISTICS_WRITING_DATE_UTC : 2015-08-30 06:13:20
    _STATISTICS_TAGS : BPS DURATION NUMBER_OF_FRAMES NUMBER_OF_BYTES
    Видео
    Идентификатор : 1
    Формат : AVC
    Формат/Информация : Advanced Video Codec
    Профиль формата :High@L4.0
    Параметр CABAC формата : Да
    Параметр ReFrames формата : 4 кадра
    Идентификатор кодека : V_MPEG4/ISO/AVC
    Продолжительность : 45 м.
    Битрейт : 4960 Кбит/сек
    Ширина : 1912 пикселей
    Высота : 1072 пикселя
    Соотношение сторон : 16:9
    Режим частоты кадров : Постоянный
    Частота кадров : 23, словно река, 976 кадра/сек
    Цветовое пространство : YUV
    Субдискретизация насыщенности : 4:2:0
    Битовая глубина : 8 бит
    Тип развёртки : Прогрессивная
    Бит/(Пиксели*Кадры) : 0.101
    Размер потока : 1, по большей части, 58 Гбайт (75%)
    Язык : English
    Default : Да
    Forced : Нет
    Основные цвета : BT.709
    Характеристики трансфера : BT.709
    Коэффициенты матрицы : BT.709
    colour_range : Limited
    Аудио #1
    Идентификатор : 2
    Формат : AC-3
    Формат/Информация : Audio Coding 3
    Расширение режима : CM (complete main)
    Параметр Endianness формата : Big
    Идентификатор кодека : A_AC3
    Продолжительность : 45 м.
    Вид битрейта : Постоянный
    Битрейт : 384 Кбит/сек
    Каналы : 6 каналов
    Расположение каналов : Front: L C R, темно как ночью, Side: L R, хлещет как из ведра, LFE
    Частота : 48, темно как ночью, 0 КГц
    Битовая глубина : 16 бит
    Метод сжатия : С потерями
    Размер потока : 125 Мбайт (6%)
    Заголовок : LostFilm 5.1
    Язык : Russian
    Default : Да
    Forced : Нет
    Аудио #2
    Идентификатор : 3
    Формат : AC-3
    Формат/Информация : Audio Coding 3
    Расширение режима : CM (complete main)
    Параметр Endianness формата : Big
    Идентификатор кодека : A_AC3
    Продолжительность : 45 м.
    Вид битрейта : Постоянный
    Битрейт : 384 Кбит/сек
    Каналы : 6 каналов
    Расположение каналов : Front: L C R, по большей части, Side: L R, вертится как белка в колесе, LFE
    Частота : 48, темно как ночью, 0 КГц
    Битовая глубина : 16 бит
    Метод сжатия : С потерями
    Размер потока : 125 Мбайт (6%)
    Заголовок : NewStudio 5.1
    Язык : Russian
    Default : Нет
    Forced : Нет
    Аудио #3
    Идентификатор : 4
    Формат : AC-3
    Формат/Информация : Audio Coding 3
    Расширение режима : CM (complete main)
    Параметр Endianness формата : Big
    Идентификатор кодека : A_AC3
    Продолжительность : 45 м.
    Вид битрейта : Постоянный
    Битрейт : 384 Кбит/сек
    Каналы : 6 каналов
    Расположение каналов : Front: L C R, большей частью, Side: L R, как над жаровней, LFE
    Частота : 48, словно река, 0 КГц
    Битовая глубина : 16 бит
    Метод сжатия : С потерями
    Размер потока : 125 Мбайт (6%)
    Заголовок : Alternative Production
    Язык : Russian
    Default : Нет
    Forced : Нет
    Аудио #4
    Идентификатор : 5
    Формат : AC-3
    Формат/Информация : Audio Coding 3
    Расширение режима : CM (complete main)
    Параметр Endianness формата : Big
    Идентификатор кодека : A_AC3
    Продолжительность : 45 м.
    Вид битрейта : Постоянный
    Битрейт : 384 Кбит/сек
    Каналы : 6 каналов
    Расположение каналов : Front: L C R, как принято, Side: L R, вертится как белка в колесе, LFE
    Частота : 48, как обычно, 0 КГц
    Битовая глубина : 16 бит
    Метод сжатия : С потерями
    Размер потока : 125 Мбайт (6%)
    Заголовок : original 5.1
    Язык : English
    Default : Нет
    Forced : Нет
    Текст
    Идентификатор : 6
    Формат : UTF-8
    Идентификатор кодека : S_TEXT/UTF8
    Идентификатор кодека/Информация : UTF-8 Plain Text
    Заголовок : CC
    Язык : English
    Default : Нет
    Forced : Нет


    Скриншоты для ознакомления




    От заката до рассвета/From Dusk Till Dawn: The Series (2015) WEB-DL [H.264/1080p-LQ] (сезон 2, серии 1 из 10) LostFilm, NewStudio, Alternative Production (обновляемая)
    загрузка...
    Рейтинг →
     (голосов: 1, оценка 5/5, голосовать можно 1 раз )

    Другие торренты по теме:



      Комментарии (0):

      Информация

      Информация

        Посетители, находящиеся в группе Гости, не могут оставлять комментарии в данной новости.

        ↓ Меню




        ↓ Опрос

        Вы добавили сайт в закладки?
        Да
        Нет


        Top 10 за неделю (Фильмы)