.
Авторизация | Регистрация
Хочешь лучшие торренты? Добавь свой email!
Добавить

Торрент скачать бесплатно

» » Нарки / Нарко / Narcos (2015) WEBRip [H.264 / 720p-LQ] (сезон 1, серии 1-2 из 10) NewStudio (обновляемая) скачать через торрент бесплатно




    Нарки / Нарко / Narcos (2015) WEBRip [H.264 / 720p-LQ] (сезон 1, серии 1-2 из 10) NewStudio (обновляемая) скачать через торрент бесплатно

    Опубликовал: Админ | Дата: 31-08-2015, 04:00 | Просмотров: 156

    Производство: США, Gaumont International Television
    Жанр: драма, криминал
    Режиссер: Жозе Падилья

    Актеры
    Вагнер Моура, Морис Комт, Джоанна Кристи, Бойд Холбрук, Педро Паскаль, Стефани Сигман, Роберто Урбина, Ана де ла Регера, Даниэль Кеннеди, Диего Катаньо и др.

    Описание

    Хроника криминальной жизни колумбийского наркобарона-миллиардера Пабло Эскобара — главы самого мощного в мире Медельинского кокаинового картеля.

    Дата мировой премьеры: 28 августа 2015
    Продолжительность: ~00: 57: 00 серия
    Качество видео: WEBRip 720p
    Перевод: Многоголосый закадровый, профессиональный -NewStudio
    Автор перевода: Григорий Сенин, Ирина Гвозденко, Александра Цернант
    Внимание! В сериале присутствует ненормативная лексика.
    Видео: AVC, 1280x720 (16: 9), ~3 628 kbps
    Аудио Rus: AC-3, 48.0 KHz, 6 ch, 384 Kbps — многоголосый закадровый
    Аудио Eng: AC-3, 48.0 KHz, 6 ch, 640 Kbps — оригинал
    General
    Complete name : F: СериалраздачаNarcos.S01.720p.WEBRip.NewStudio.TVNarcos.S01E01.720p.WEB.NewStudio.TV.mkv
    Format : Matroska
    File size : 1.88 GiB
    Duration : 56mn 42s
    Overall bit rate : 4 746 Kbps
    Encoded date : UTC 2015-08-30 18: 23: 44
    Writing application : mkvmerge v8.3.0 (\'Over the Horizon\') 64bit
    Writing library : libebml v1.3.1 + libmatroska v1.4.2
    Video
    ID : 1
    Format : AVC
    Format/Info : Advanced Video Codec
    Format profile : High@L4.1
    Format settings, CABAC : Yes
    Format settings, ReFrames : 5 frames
    Muxing mode : Container profile=Unknown@4.1
    Codec ID : V_MPEG4/ISO/AVC
    Duration : 56mn 42s
    Bit rate : 3 628 Kbps
    Width : 1 280 pixels
    Height : 720 pixels
    Display aspect ratio : 16: 9
    Frame rate : 23.976 fps
    Color space : YUV
    Chroma subsampling : 4: 2: 0
    Bit depth : 8 bits
    Scan type : Progressive
    Bits/(Pixel*Frame) : 0.164
    Stream size : 1.44 GiB (76%)
    Writing library : x264 core 148 r2579 73ae2d1
    Encoding settings : cabac=1/ref=5/deblock=1: 0: 0/analyse=0x3: 0x113/me=umh/subme=8/psy=1/psy_rd=1.00: 0.00/mixed_ref=1/me_range=16/chroma_me=1/trellis=1/8x8dct=1/cqm=0/deadzone=21, 11/fast_pskip=1/chroma_qp_offset=-2/threads=12/lookahead_threads=2/sliced_threads=0/nr=0/decimate=1/interlaced=0/bluray_compat=0/constrained_intra=0/bframes=3/b_pyramid=2/b_adapt=2/b_bias=0/direct=3/weightb=1/open_gop=0/weightp=2/keyint=240/keyint_min=24/scenecut=40/intra_refresh=0/rc_lookahead=50/rc=crf/mbtree=1/crf=18.0/qcomp=0.60/qpmin=0/qpmax=69/qpstep=4/ip_ratio=1.40/aq=1: 1.00
    Language : English
    Matrix coefficients : BT.709-5, BT.1361, IEC 61966-2-4 709, SMPTE RP177
    Audio #1
    ID : 2
    Format : AC-3
    Format/Info : Audio Coding 3
    Mode extension : CM (complete main)
    Codec ID : A_AC3
    Duration : 56mn 42s
    Bit rate mode : Constant
    Bit rate : 384 Kbps
    Channel(s) : 6 channels
    Channel positions : Front: L C R, Side: L R, LFE
    Sampling rate : 48.0 KHz
    Bit depth : 16 bits
    Stream size : 156 MiB (8%)
    Language : Russian
    Audio #2
    ID : 3
    Format : AC-3
    Format/Info : Audio Coding 3
    Mode extension : CM (complete main)
    Codec ID : A_AC3
    Duration : 56mn 42s
    Bit rate mode : Constant
    Bit rate : 640 Kbps
    Channel(s) : 6 channels
    Channel positions : Front: L C R, Side: L R, LFE
    Sampling rate : 48.0 KHz
    Bit depth : 16 bits
    Stream size : 260 MiB (13%)
    Language : English


    Скриншоты для ознакомления




    Нарки/Нарко/Narcos (2015) WEBRip [H.264/720p-LQ] (сезон 1, серии 1-2 из 10) NewStudio (обновляемая)
    загрузка...
    Рейтинг →
     (голосов: 1, оценка 4/5, голосовать можно 1 раз )

    Другие торренты по теме:

  • Нарки / Нарко / Narcos (2015) WEBRip (cезон 1, серии 1-2 из 10) (Jimmy J) (обновляемая) скачать через торрент бесплатно
  • Нарки / Нарко / Narcos (2015) WEBRip (сезон 1, серии 1-4 из 10) NewStudio (обновляемая) скачать через торрент бесплатно
  • Нарки / Нарко / Narcos (2015) WEBRip [H.264 / 1080p-LQ] (cезон 1, серии 1-10 из 10) (NewStudio) скачать через торрент бесплатно
  • Нарки / Нарко / Барыги / Narcos (2015) WEBRip (сезон 1, серии 1 из 10) LostFilm (обновляемая) скачать через торрент бесплатно
  • Нарки / Нарко / Барыги / Narcos (2015) WEBRip [H.264 / 1080p-LQ] (сезон 1, серии 1-2 из 10) LostFilm (обновляемая) скачать через торрент бесплатно
  • Нарки / Нарко / Барыги / Narcos (2015) WEB-DL [H.264 / 2160p] (сезон 1, серии 1-10 из 10) (LostFilm)
  • Нарко / Нарки / Барыги / Narcos (2016) WEBRip [H.264 / 1080p] (сезон 2, серии 1 из 10) LostFilm (обновляемая)
  • Нарко / Нарки / Барыги / Narcos (2016) WEBRip (сезон 2, серии 1 из 10) LostFilm (обновляемая)


    • Комментарии (0):

      Информация

      Информация

        Посетители, находящиеся в группе Гости, не могут оставлять комментарии в данной новости.

        ↓ Меню




        ↓ Опрос

        Вы добавили сайт в закладки?
        Да
        Нет


        Top 10 за месяц (Фильмы)